<?xml version="1.0" standalone="no"?>
<!DOCTYPE svg PUBLIC "-//W3C//DTD SVG 1.1//EN" "http://www.w3.org/Graphics/SVG/1.1/DTD/svg11.dtd" >
<svg>
<metadata>
Created by FontForge 20120731 at Tue Apr 28 18:20:36 2020
 By www
2012 Iconian Fonts - www.iconian.com
</metadata>
<defs>
<font id="Fiddler'sCoveBold" horiz-adv-x="466" >
  <font-face 
    font-family="Fiddler's Cove Bold"
    font-weight="700"
    font-stretch="normal"
    units-per-em="1000"
    panose-1="0 0 0 0 0 0 0 0 0 0"
    ascent="800"
    descent="-200"
    x-height="686"
    cap-height="686"
    bbox="-68 -128 795 870"
    underline-thickness="50"
    underline-position="-75"
    unicode-range="U+0020-2122"
  />
<missing-glyph horiz-adv-x="500" 
 />
    <glyph glyph-name=".notdef" horiz-adv-x="500" 
 />
    <glyph glyph-name=".null" horiz-adv-x="0" 
 />
    <glyph glyph-name="nonmarkingreturn" horiz-adv-x="500" 
 />
    <glyph glyph-name="space" unicode=" " horiz-adv-x="284" 
 />
    <glyph glyph-name="space" unicode="&#xa0;" horiz-adv-x="284" 
 />
    <glyph glyph-name="FL0021h" unicode="!" horiz-adv-x="176" 
d="M25 72q0 32 20.5 53.5t49.5 21.5q30 0 50.5 -21.5t20.5 -53.5q0 -30 -20.5 -51t-50.5 -21q-29 0 -49.5 21t-20.5 51zM35 644q0 18 7 30t24 12h63q4 0 8 -7.5t7.5 -18t5.5 -22.5t2 -22v-12l-4 -365q0 -27 -11 -46t-24 -21h1q-10 -2 -22 -2q-10 0 -14 0.5t-6 1.5h2
q-12 2 -17 13.5t-9 22.5q-2 5 -3 9t-3 7z" />
    <glyph glyph-name="FL0022h" unicode="&#x22;" horiz-adv-x="338" 
d="M323 533q0 -16 -13.5 -31.5t-33 -28t-42 -21t-40.5 -9.5q0 11 -1 11t-2 2q-1 1 -1 7q0 19 6.5 27.5t15.5 14.5q3 2 6 5l6 6q-17 6 -29 17t-17 27v-27q0 -16 -13.5 -31.5t-33 -28t-42 -21t-40.5 -9.5q0 11 -1 11t-2 2q-1 1 -1 7q0 19 6.5 27.5t15.5 14.5q2 2 5.5 5t6.5 6
q-22 8 -35.5 25t-13.5 40q0 31 21.5 51t52.5 20q28 0 47.5 -15t25.5 -40q5 25 25.5 40t46.5 15q31 0 52.5 -20t22.5 -51z" />
    <glyph glyph-name="FL0023h" unicode="#" horiz-adv-x="561" 
d="M519 314h-68v74h68q19 0 25 9t6 24q0 5 -1 10v-2q0 1 -0.5 1.5t-0.5 1.5v10q-1 2 -1 4t-1 4q-2 11 -5 24t-7.5 24.5t-12 19t-17.5 7.5q-8 0 -7 1q-8 -8 -20 -16.5t-26 -14.5v106l1 2v-1q12 12 20 23.5t8 29.5q0 11 -5.5 21t-19.5 10h-129q-20 0 -25.5 -11.5t-5.5 -26.5
q0 -2 0.5 -3.5t0.5 -3.5v-6q1 -5 11 -17.5t16 -18.5l7 -93q-8 -2 -21 -2t-27 -1q-9 -1 -17.5 -1.5t-13.5 -0.5l5 99l2 2q12 12 19.5 23.5t7.5 29.5q0 11 -5 21t-19 10h-129q-20 0 -25.5 -11.5t-5.5 -26.5q0 -2 0.5 -3.5t0.5 -3.5v-6q1 -5 10.5 -17.5t16.5 -18.5v-107
q-16 5 -29 12t-18 15q-3 3 -4 3.5t-5 1.5q-15 0 -19 -8.5t-7 -18.5q0 -1 -0.5 -2t-0.5 -2q-2 -5 -5 -14t-5.5 -18t-5 -17.5t-3.5 -13.5t-1 -10q0 -15 6.5 -24t24.5 -9h72v-73h-74q-16 0 -22.5 -9.5t-6.5 -24.5q0 -4 1 -9q1 -7 3.5 -16.5t5.5 -19.5t6 -18t5 -12v-1
q3 -9 6.5 -17.5t17.5 -8.5h2q6 0 9 3q5 6 18 13t29 14v-157q5 -8 6 -11t3 -8q5 -11 10 -21.5t17 -10.5h144l-58 90v107q6 2 8 1t7 0t10 1q6 0 10 1q5 -1 11.5 -1.5t14.5 -0.5q4 -1 9 -1h10v-145q2 -3 3 -8.5t3 -11.5q2 -11 6.5 -21.5t15.5 -10.5h143l-51 89v116
q29 -12 43 -26q4 -2 7 -2h3q11 0 18.5 9t12.5 22.5t8 28t5 25.5v5q0 2 1 3q1 5 1 9q0 16 -6 25.5t-25 9.5zM251 389l80 -1v-73l-80 1v73z" />
    <glyph glyph-name="FL0024h" unicode="$" horiz-adv-x="459" 
d="M203 52q-2 6 0.5 -3t4.5 -14v1q3 -11 8 -22t13 -13q2 -1 10 -1h24q9 0 12 2q10 3 18.5 21.5t8.5 44.5v30h35l91 95q12 12 16 27t4 29v19q0 32 -12.5 54t-33 37t-46.5 24.5t-54 17.5v105l13 -13q8 -9 15.5 -15.5t17.5 -6.5q3 0 8.5 0.5t9.5 2.5q8 13 16 21
q13 17 25.5 37.5t12.5 40.5q0 2 -0.5 3.5t-0.5 2.5v8l-16 6h-101v9q1 3 1 14q0 10 -2.5 22.5t-6 23t-7 17.5t-5.5 7h-52q-13 0 -20 -11.5t-7 -29.5v-55q-21 -6 -45 -25.5t-44.5 -43t-34.5 -47.5t-14 -39q0 -26 11.5 -44.5t30.5 -32t44 -23t52 -16.5v-150q-9 6 -18 16t-17 19
q-12 13 -20.5 22.5t-16.5 9.5q-12 0 -19.5 -7.5t-11.5 -17.5t-5 -19t-1 -13q-10 -21 -32 -40.5t-51 -40.5h192v-46zM360 240q0 -7 -6 -18t-14.5 -22t-18.5 -20.5t-19 -12.5v125q25 -9 41.5 -21.5t16.5 -30.5zM163 468q0 14 11.5 25.5t28.5 19.5v-85q-19 8 -29.5 17t-10.5 23
z" />
    <glyph glyph-name="FL0025h" unicode="%" horiz-adv-x="537" 
d="M450 601v-1l1 2q14 13 22 24t8 29q0 11 -4.5 21t-21.5 10h-128q-20 0 -25.5 -11.5t-5.5 -26.5q0 -2 0.5 -3.5t0.5 -3.5v-5q2 -5 12 -16t18 -19l-93 -220q1 4 1 11v183q0 12 -6.5 25t-16.5 23.5t-22 17t-24 6.5h-79q-11 0 -19.5 -6t-15.5 -15t-12 -19t-8 -18v-9
q0 -13 12 -13h2q-11 -9 -11 -18v-199q0 -8 5.5 -17t13.5 -17t17.5 -13.5t17.5 -6.5h28q38 0 61.5 14.5t44.5 46.5h-1l2 2l-1 -2l-131 -307q3 -5 4 -8.5t3 -8.5q4 -11 8.5 -22t19.5 -11h142l-50 88l101 223v-2q0 -14 12 -14h1q-10 -10 -10 -17v-201q0 -8 5.5 -16.5t13.5 -16
t18 -13.5t18 -7h27q38 0 61 13.5t43 42.5q5 9 9.5 20.5t4.5 18.5v184q0 12 -6.5 25t-16.5 23.5t-22 17t-24 6.5h-78q-11 0 -20 -5t-16 -13l110 242v2zM147 587q4 -2 5 -5.5t1 -5.5v-177q0 -17 -3 -26t-17 -9q-10 0 -14 4t-4 17v162q0 4 0.5 7.5t1.5 8.5l3 18l-6 6h33z
M406 315h32q4 -6 4 -12v-176q0 -17 -3 -26t-19 -9q-9 0 -12.5 4t-3.5 16v164q0 2 2 12q1 5 1.5 9.5t0.5 12.5l-5 5h3zM450 600v-1v1z" />
    <glyph glyph-name="FL0026h" unicode="&#x26;" horiz-adv-x="518" 
d="M157 395q-1 0 -5 2v-266q0 -7 3 -16t8 -17.5t11.5 -14.5t14.5 -6h67q9 0 16.5 6.5t13.5 16t9 20t3 18.5v269q0 5 -7 15.5t-13 10.5h-69l-35 -35q-1 -4 -2.5 -4.5t-7.5 -0.5q-3 0 -7 2zM30 544l113 121q3 3 10 6.5t15 7t15.5 5.5t11.5 2h174v-151h-39l-52 52q-2 2 -4 3
l-2 1h-101q-4 0 -11.5 -8.5t-7.5 -11.5v-108q4 9 7.5 16.5t5.5 11.5q2 3 7.5 8.5t12.5 10.5t13.5 8.5t11.5 3.5h149q6 0 9 -1h58l49 52q18 0 23.5 -12.5t5.5 -23.5v-147q-4 -8 -10.5 -14.5t-14.5 -6.5q-12 0 -19 8.5t-13 19.5q-4 5 -7.5 10t-7.5 8h-1h-6t-12 1v-267
q0 -21 -15 -46.5t-37 -48.5t-46.5 -38.5t-42.5 -15.5h-156q-13 0 -28 9.5t-28 23.5t-21.5 30t-8.5 29v452z" />
    <glyph glyph-name="FL0027h" unicode="'" horiz-adv-x="181" 
d="M167 533q0 -16 -13 -31.5t-31.5 -28t-40 -21t-38.5 -9.5q0 11 -1 11l-1 2q-1 1 -1 7q0 19 6.5 27.5t14.5 14.5q2 2 5.5 5t5.5 6q-21 8 -33.5 25t-12.5 40q0 31 20.5 51t49.5 20t49.5 -20t20.5 -51v-48z" />
    <glyph glyph-name="FL0028h" unicode="(" horiz-adv-x="306" 
d="M153 672l-62 -63q-3 -4 -8.5 -11t-10.5 -12v1q-14 -14 -27.5 -32.5t-13.5 -40.5v-410q0 -15 8.5 -33t21 -34t28.5 -26.5t31 -10.5h136q7 0 12 6t8.5 14.5t6 18t4.5 17.5q1 6 -4 6v15h-92q-11 0 -18.5 9t-13 21.5t-8 25.5t-2.5 21v16q0 8 -0.5 21t-0.5 32v326q0 5 1 8
q0 7 9 20.5t17 13.5h92q4 0 12 24.5t10 70.5h-98q-8 0 -18.5 -4t-18.5 -10h-1z" />
    <glyph glyph-name="FL0029h" unicode=")" horiz-adv-x="306" 
d="M166 14l66 67q3 3 6 6.5t6 7.5q14 14 29 33.5t15 42.5v411q0 15 -8.5 33t-21 34t-28.5 26.5t-31 10.5h-137q-8 0 -13 -6t-8 -14.5t-5.5 -18t-3.5 -17.5q-1 -3 1.5 -5l2.5 -2v-15h92q10 0 18 -9t13.5 -21t8 -25t2.5 -21v-18q0 -8 0.5 -20.5t0.5 -30.5v-326q0 -5 -1 -8
q0 -4 -2.5 -10t-6.5 -11t-8.5 -9t-8.5 -4h-92q-4 0 -12 -25t-11 -70h99q8 0 18.5 4t18.5 10h1z" />
    <glyph glyph-name="FL002Ah" unicode="*" horiz-adv-x="289" 
d="M265 541h-1v1zM265 541v1l1 -1h-1zM225 569q-4 0 -8 -2l-6 -4l9 -5q5 -4 8.5 -4.5t7.5 -0.5q7 0 14 -1.5t14 -9.5v-1h1q2 -2 4 -4.5t2 -6.5q0 -2 -0.5 -3.5t-2.5 -6.5l-65 -65q-12 -10 -17 -10q-6 0 -7.5 0.5t-1.5 4.5q-2 4 -2 5q-5 6 -6.5 15t-2.5 17l-2 13h2l-13 7
l-14 -14q-1 -1 -1 -5q0 -3 0.5 -6t0.5 -6q2 -6 3.5 -10t1.5 -8q0 -5 -2 -8l-4 -6v1q-3 -5 -8.5 -6.5t-9.5 -1.5q-2 0 -4.5 0.5t-7.5 2.5l-70 70q-12 11 -12 22q0 5 1.5 7.5t3.5 4.5q6 5 14 6t16 1h4h14q7 0 8 1l11 10l-8 7l-43 12q-4 1 -8.5 5.5t-4.5 10.5q0 7 5 12l69 66
q2 2 8 2l2.5 -1t4.5 -1q1 0 2 -0.5t2 -0.5q9 -10 10.5 -16t1.5 -13q1 -3 1.5 -6.5t2.5 -8.5h1l9 -12l5 5l5 53v-1q0 8 5 11q6 4 11 4q10 0 21 -11l73 -73q6 -9 6 -17q0 -11 -6 -15l1 1q-5 -5 -10.5 -6.5t-13.5 -1.5q-2 0 -5.5 0.5t-7.5 0.5q-2 0 -5.5 0.5t-6.5 0.5z" />
    <glyph glyph-name="FL002Bh" unicode="+" horiz-adv-x="325" 
d="M228 311h-11l5 -13q1 -8 4 -12t5 -8v1q5 -5 9 -11t4 -18v-2q0 -6 -1.5 -9t-10.5 -8h-109q-14 0 -18.5 2.5t-4.5 9.5q0 5 3 8q0 8 6 16l12 16q3 4 6 7t3 5l-3 18l-24 -1h1q-6 -1 -9 -5.5t-6 -10.5q-5 -8 -10 -15t-17 -7q-18 0 -25 18v115q0 23 6.5 27t14.5 4
q9 0 17.5 -7.5t17.5 -15.5q12 -14 15 -14l20 -2v15l-26 46q-1 4 -2 5q0 18 16 18h112q8 -4 9.5 -7t1.5 -10v-1q0 -11 -3.5 -17.5t-8.5 -12.5q-3 -3 -5.5 -6t-4.5 -8l2 -2l-4 -18h11l49 41q5 1 6 2q9 0 15.5 -10.5t6.5 -18.5v-124q-3 -7 -11 -14t-13 -7q-11 0 -18.5 8
t-14.5 16q-5 5 -8 9t-2 4z" />
    <glyph glyph-name="FL002Ch" unicode="," horiz-adv-x="181" 
d="M167 19q0 -17 -13 -32.5t-31.5 -27.5t-40 -20t-38.5 -9q0 11 -1 11l-1 2q-1 1 -1 8q0 19 6.5 27t14.5 15q2 2 5.5 4.5t5.5 7.5q-21 7 -33.5 24t-12.5 40q0 31 20.5 50.5t49.5 19.5t49.5 -19.5t20.5 -50.5v-50z" />
    <glyph glyph-name="FL00BCh" unicode="-" horiz-adv-x="323" 
d="M160 303l-51 -4q-6 -1 -10 -6.5t-8 -11.5q-6 -10 -12 -18t-18 -8q-7 0 -14.5 2.5t-11.5 11.5l1 140q0 22 5 30t13 8q9 0 19 -10.5t20 -21.5l16 -18h117l48 49q18 0 23 -11.5t5 -21.5l1 -139q-4 -8 -11 -13.5t-14 -5.5q-12 0 -18.5 8t-11.5 18q-4 5 -7 10t-5 5l-8 4h5
l-4 12l-5.5 -1.5t-13.5 -3t-16.5 -3t-13.5 -1.5h-20z" />
    <glyph glyph-name="FL002Eh" unicode="." horiz-adv-x="184" 
d="M27 66q0 29 20.5 48.5t50.5 19.5q29 0 49.5 -19.5t20.5 -48.5q0 -28 -20.5 -47t-49.5 -19q-30 0 -50.5 19t-20.5 47z" />
    <glyph glyph-name="FL002Fh" unicode="/" horiz-adv-x="421" 
d="M380 601l-1 -3l5 5q11 11 18.5 22t7.5 30q0 11 -4.5 21t-20.5 10h-127q-19 0 -24.5 -11.5t-5.5 -26.5v-12q2 -5 12 -16t17 -19l-232 -551q1 -2 2.5 -5.5t2.5 -6.5q4 -13 10 -25.5t20 -12.5h135q0 22 -8 33t-17 20q-7 7 -13 14.5t-6 18.5z" />
    <glyph glyph-name="FL0030h" unicode="0" horiz-adv-x="436" 
d="M272 580q13 0 36.5 -7t47 -18.5t41 -26.5t17.5 -31v-399q0 -17 -10.5 -33t-25.5 -29.5t-32.5 -23t-31.5 -12.5h-11q-5 0 -9 -0.5t-9 -0.5h-25q-36 0 -65 6.5t-53 21t-44.5 36.5t-40.5 53v-1q-9 13 -16 32t-7 35v366q0 24 11.5 48.5t30.5 44.5t41.5 32.5t45.5 12.5h155
q21 0 37.5 -12t28.5 -28.5t21 -35.5t15 -32v-7q0 -2 0.5 -3.5t0.5 -2.5v-6q0 -8 -3 -13.5t-14 -5.5t-24.5 8t-27.5 18q-14 9 -25.5 16.5t-16.5 7.5l-112 1q-10 -3 -21.5 -13t-11.5 -18v-401q0 -38 14.5 -57.5t53.5 -19.5q10 0 22 2.5t21.5 8t16 15t6.5 23.5v372
q0 8 -4.5 14.5t-10.5 13.5q-7 8 -13.5 18.5t-6.5 23.5z" />
    <glyph glyph-name="FL0031h" unicode="1" horiz-adv-x="227" 
d="M188 84q5 -9 14 -19l13 -13v-6v-9q0 -14 -5 -25.5t-24 -11.5h-123q-15 0 -19.5 9.5t-4.5 20.5q0 19 7 30t18 22l3 3v514q0 11 -6 18t-14 15q-9 10 -16.5 22t-7.5 32h131q14 0 19 -11.5t8 -23.5q4 -12 7 -17v-550z" />
    <glyph glyph-name="FL0032h" unicode="2" horiz-adv-x="464" 
d="M348 186q10 0 16.5 -6.5t10.5 -16.5t6 -21t3 -20q1 -4 1.5 -8.5t0.5 -2.5q8 -30 29 -56.5t47 -54.5h-377l-54 207v26q0 51 16.5 83.5t42 54t57 34t61.5 23.5q21 7 40.5 14.5t34.5 17.5t23.5 23t8.5 31q0 16 -7.5 31.5t-19.5 26.5t-27.5 18t-31.5 7q-26 0 -40.5 -15.5
t-24.5 -31.5v1q-8 -11 -15 -20t-18 -9q-3 0 -9.5 0.5t-9.5 2.5q-1 2 -5 9t-9 16q-12 23 -25.5 53t-13.5 58v16l17 9h179q35 0 64 -23.5t50 -57t32.5 -71.5t11.5 -67q0 -41 -15 -68.5t-39.5 -46.5t-55 -31.5t-60.5 -23.5q-24 -9 -46.5 -17.5t-40 -20t-27.5 -27t-10 -36.5
q0 -11 2 -29t6 -35.5t8.5 -30t9.5 -12.5h124q9 8 19 21.5t20 28.5q11 18 21.5 32.5t18.5 14.5z" />
    <glyph glyph-name="FL0033h" unicode="3" horiz-adv-x="396" 
d="M324 609q3 -4 8.5 -11t10.5 -12v1q14 -14 27.5 -32.5t13.5 -40.5v-410q0 -15 -8.5 -33t-21.5 -34t-29 -26.5t-31 -10.5h-138q-23 0 -45.5 14t-41.5 35.5t-30.5 47t-11.5 48.5q0 16 6.5 19.5t21.5 3.5q20 0 28 -14.5t14 -34.5q5 -15 11 -28.5t20 -13.5h94q10 0 18 9
t13.5 21.5t8 25.5t2.5 21v5q0 4 0.5 9.5t0.5 13.5v65q0 18 -0.5 30.5t-0.5 20.5v16l-19 16q1 0 -8.5 -4.5t-19.5 -4.5h-7q-4 0 -7.5 0.5t-6.5 0.5q-11 0 -28.5 -1t-28.5 -6q-2 -1 -5.5 -6.5t-6.5 -11.5q-6 -11 -12.5 -19t-18.5 -8h-2q-7 0 -9.5 1.5t-7.5 9.5l-6 149v3
q0 12 4.5 25.5t24.5 13.5l49 -52h109l6 7v133q0 3 -2.5 8t-6.5 10.5t-8.5 9t-7.5 3.5h-94q-2 0 -8.5 -3.5t-8.5 -5.5h1l-46 -47h-40v151h179q8 0 20 -5t22 -13z" />
    <glyph glyph-name="FL0034h" unicode="4" horiz-adv-x="469" 
d="M56 598q-7 7 -17 20.5t-12 17.5v5q0 2 -0.5 3.5t-0.5 3.5q0 15 5.5 26.5t25.5 11.5h128q14 0 19 -10t5 -21q0 -16 -8 -26t-19 -21h1l-7 -8v-179h114v178q-7 6 -17.5 19t-12.5 18v5q0 2 -0.5 3.5t-0.5 3.5q0 15 5 26.5t25 11.5h129q14 0 19 -10t5 -21q0 -19 -8 -30.5
t-19 -23.5l-1 -1v-513q0 -11 5.5 -19t13.5 -15q9 -9 17 -20t8 -33h-185q-17 0 -17 13q0 8 11 19.5t20 19.5h-1l4 5v258h-234v283z" />
    <glyph glyph-name="FL0035h" unicode="5" horiz-adv-x="463" 
d="M326 501q10 0 17 7t10.5 16.5t5.5 21t3 20.5q0 2 0.5 3.5t0.5 3.5v2l4 15q8 26 17 47t32 50h-383v-235q0 -48 16 -76t42 -42t58.5 -17.5t65.5 -3.5h38q19 0 35.5 -2t28.5 -7t19 -15t7 -25q0 -17 -9.5 -46t-23.5 -57t-31 -48.5t-33 -20.5q-26 0 -45 6.5t-33 16t-23.5 19.5
t-15.5 17q-10 13 -15 13q-2 0 -5 -0.5t-5 -0.5q-2 -1 -5 -1h-3q-3 -7 -6 -13t-8 -13q-13 -24 -26.5 -53t-13.5 -58v-3t2 -13l16 -9h254q13 0 28.5 18.5t31 47.5t29.5 65t25 70.5t17.5 64.5t6.5 46q0 41 -17 64t-45 34.5t-62.5 14.5t-69.5 4q-27 1 -51.5 3t-43.5 8
t-30.5 17.5t-11.5 32.5v44q0 23 0.5 43t2.5 20h121q3 0 6 -3q8 -8 17.5 -21t17.5 -27q11 -17 21 -31t19 -14z" />
    <glyph glyph-name="FL0036h" unicode="6" horiz-adv-x="424" 
d="M30 544v-452q0 -13 8.5 -29t21 -30t27.5 -23.5t28 -9.5h155q18 0 42.5 15.5t46.5 38.5t37 48.5t15 46.5v228q0 9 -6 19t-15 17.5t-19 12.5t-17 5h-145q-5 0 -12 -4t-14.5 -10.5t-13.5 -13.5t-9 -13l-3 -9l-6 -12v202q0 3 7 11.5t12 8.5h100l2 -1t4 -3l51 -52h39v151h-173
q-4 0 -11 -2t-15 -5.5t-15 -7t-10 -6.5zM157 304l3 -2q7 0 8.5 0.5t3.5 2.5l36 37h69q6 0 12.5 -10t6.5 -15v-179q0 -8 -3 -18.5t-9 -20t-13.5 -16t-16.5 -6.5h-67q-8 0 -14.5 5.5t-11 13.5t-7.5 17t-3 17v177q2 -1 3 -2t3 -1z" />
    <glyph glyph-name="FL0037h" unicode="7" horiz-adv-x="468" 
d="M82 523l-2 -2zM422 686q14 0 24 -4.5t10 -16.5v-12q0 -5 0.5 -10t0.5 -11q0 -17 -2.5 -33.5t-11.5 -25.5q-11 -3 -31.5 -34t-46.5 -79.5t-55 -108.5t-56.5 -120t-52 -114.5t-40.5 -91.5v2q-1 -2 -5.5 -7t-12 -10.5t-17.5 -9.5t-23 -4q-15 0 -27 4q-14 5 -24.5 21.5
t-10.5 34.5v6l247 528l-1 1h-108q-11 0 -25 -7.5t-28 -18.5t-25.5 -22.5t-18.5 -19.5q-2 0 -6 -1q-15 0 -19 8.5t-7 17.5q0 1 -0.5 1.5t-0.5 2.5v-2q-2 5 -5 17.5t-6.5 26.5t-6.5 27.5t-4 20.5q-1 5 -1 10q0 15 6.5 24.5t24.5 9.5h365z" />
    <glyph glyph-name="FL0038h" unicode="8" horiz-adv-x="427" 
d="M155 434q7 -14 12 -14h109q5 2 8 7q1 4 5 8l-1 -2l1 1v126q0 6 -9.5 17.5t-17.5 13.5h-82q-3 0 -7.5 -3.5t-8.5 -9t-6.5 -10.5t-2.5 -8v-126zM155 154q0 -8 2.5 -20.5t8 -24.5t13 -21.5t17.5 -10.5h51q10 0 18 9t13 21.5t8 25.5t3 21v149q-3 4 -3 6q0 3 2 2l-17 8l2 -1
q-18 3 -32 3h-6q-8 0 -11 1h-6q-3 -1 -10 -1h-5q-13 0 -28 -3q-2 -1 -3.5 -1.5t-6.5 -1.5q-6 -2 -12 -15q1 0 1 -3v-19q0 -4 1 -5v-119zM159 673q5 4 15.5 8.5t18.5 4.5h54q6 0 18.5 -5t23.5 -13l59 -59q3 -4 9 -11t10 -12v1q14 -14 28 -32.5t14 -40.5v-410q0 -15 -8.5 -33
t-21.5 -34t-29 -26.5t-31 -10.5h-194q-15 0 -31 10.5t-29 26.5t-21.5 34t-8.5 33v410q0 22 13.5 40.5t27.5 32.5v-1q5 5 10.5 12t8.5 11z" />
    <glyph glyph-name="FL0039h" unicode="9" horiz-adv-x="424" 
d="M411 140v453q0 13 -8.5 29t-21.5 30.5t-27.5 24t-27.5 9.5h-156q-18 0 -42.5 -15.5t-46 -38.5t-36.5 -48.5t-15 -46.5v-229q0 -9 6 -18.5t14.5 -17t18.5 -12.5t18 -5h144q5 0 12.5 4t15 10.5t13.5 13.5t8 13q1 6 10 23v-204q0 -4 -7 -12t-13 -8h-98q-5 1 -7 3l-52 52h-39
v-150h174q3 0 10.5 2t15 5t15 6.5t10.5 6.5zM286 381q-5 2 -5.5 2.5t-2.5 0.5q-11 0 -11 -5l-35 -35h-68q-6 0 -12.5 10t-6.5 15v179q0 7 3 17.5t9 20t13.5 16t16.5 6.5h67q7 0 13.5 -5.5t11.5 -13.5t7.5 -17t2.5 -16v-179q-3 1 -3 4zM305 350h-1l1 2q1 0 0 -2z" />
    <glyph glyph-name="FL003Ah" unicode=":" horiz-adv-x="181" 
d="M28 329q0 29 20.5 50.5t49.5 21.5q31 0 51 -21.5t20 -50.5q0 -32 -20 -52t-51 -20q-29 0 -49.5 20t-20.5 52zM27 71q0 32 20.5 52.5t50.5 20.5q29 0 50 -20.5t21 -52.5q0 -29 -21 -50t-50 -21q-30 0 -50.5 21t-20.5 50z" />
    <glyph glyph-name="FL003Bh" unicode=";" horiz-adv-x="185" 
d="M30 331q0 30 20.5 51t49.5 21t49.5 -21t20.5 -51q0 -32 -20.5 -52.5t-49.5 -20.5t-49.5 20.5t-20.5 52.5zM169 21q0 -16 -12.5 -32.5t-31 -29.5t-40 -22t-38.5 -10q0 12 -1 12t-1 2q-1 1 -1 8q0 20 6 28.5t14 14.5q3 3 6 5.5t6 7.5q-21 8 -34 25.5t-13 41.5
q0 32 20.5 52.5t49.5 20.5q30 0 50 -20.5t21 -52.5z" />
    <glyph glyph-name="FL003Ch" unicode="&#x3c;" horiz-adv-x="330" 
d="M163 62q2 5 2.5 9.5t2.5 9.5l-144 264l144 258q-4 7 -4 19q0 8 -3 13v6v7q0 15 5 26.5t25 11.5h103q16 0 20.5 -10t4.5 -21q0 -18 -7.5 -29t-20.5 -24l-2 -3l1 1l-133 -255l132 -259l2 -3h-1q14 -13 21.5 -23.5t7.5 -30.5q0 -11 -5 -20t-19 -9h-106q-20 0 -25 11.5
t-5 25.5q0 2 0.5 4.5t0.5 4.5v6q2 2 2 4q0 3 1 6z" />
    <glyph glyph-name="FL003Dh" unicode="=" horiz-adv-x="381" 
d="M67 370l263 1q18 0 24 8.5t6 23.5q0 5 -1 10q0 8 -1 13v-1q-2 11 -5 25t-7.5 26t-12 20t-18.5 8q-7 0 -12 -7l1 2q-5 -6 -16 -12t-24 -11.5t-27 -9t-26 -4.5h-23q-12 0 -26.5 3.5t-28.5 9t-25.5 12.5t-18.5 15q-4 1 -9 1q-14 0 -17.5 -8t-6.5 -18v-5q-5 -11 -11 -29.5
t-8 -29.5q-1 -5 -1 -10q0 -15 6.5 -24t24.5 -9zM330 351l-263 1q-18 0 -24.5 -8.5t-6.5 -23.5q0 -5 1 -9q2 -13 7 -27.5t9 -25.5l3 -12v-1q3 -9 6.5 -17t17.5 -8q2 0 5.5 1.5t5.5 3.5v-1q5 6 16.5 12.5t25.5 11.5t28.5 8.5t26.5 3.5h23q12 -2 26 -5.5t27 -8.5t23.5 -11
t16.5 -12l-1 1q2 -2 6 -3.5t6 -1.5q10 0 17.5 8t12 20t7.5 25.5t5 24.5l1.5 7.5t0.5 5.5q1 4 1 9q0 15 -6 23.5t-24 8.5z" />
    <glyph glyph-name="FL003Eh" unicode="&#x3e;" horiz-adv-x="330" 
d="M319 345l-144 258q2 4 2.5 9t1.5 10q0 7 2 13v6q0 2 0.5 3.5t0.5 3.5q0 15 -5 26.5t-25 11.5h-103q-16 0 -20.5 -10t-4.5 -21q0 -19 8 -30t19 -23v1l3 -4l-1 1l133 -255l-133 -261l1 2l-3 -3q-11 -12 -19 -23t-8 -31q0 -11 5 -20t19 -9h106q20 0 25 11.5t5 25.5
q0 2 -0.5 4.5t-0.5 4.5v6q-3 3 -3 10q-2 5 -2.5 9.5t-2.5 9.5z" />
    <glyph glyph-name="FL003Fh" unicode="?" horiz-adv-x="396" 
d="M78 72q0 32 21.5 53.5t52.5 21.5q32 0 53.5 -21.5t21.5 -53.5q0 -30 -21.5 -51t-53.5 -21q-31 0 -52.5 21t-21.5 51zM83 182q-2 0 -6 14.5t-8 33t-6.5 34.5t-2.5 19q0 26 27 50t64 50q20 14 40.5 29.5t38 31t30.5 32.5t19 34q5 13 5 18q0 14 -8.5 26.5t-22 22t-29 15
t-29.5 5.5q-26 0 -40 -15.5t-24 -30.5q-7 -12 -14.5 -20.5t-18.5 -8.5q-3 0 -9 0.5t-9 2.5q-2 5 -5.5 11t-8.5 14q-13 24 -26.5 53t-13.5 58q0 2 0.5 4t0.5 4v8l17 9h178q28 0 56.5 -20t52 -49t38.5 -63t15 -61v-13q0 -7 0.5 -14.5t0.5 -15.5q0 -6 -4 -17.5t-9.5 -23
t-10 -20.5t-5.5 -10q-58 -29 -92.5 -56t-54 -50t-27 -40.5t-10.5 -27.5q-3 -8 -4 -12t-9 -4z" />
    <glyph glyph-name="FL0040h" unicode="@" horiz-adv-x="567" 
d="M191 419v-195q0 -8 5.5 -17t14 -16.5t18 -13.5t18.5 -7h25v-1h115q8 1 20.5 6t22.5 13l74 74h-1q15 14 31.5 33t16.5 42v246q0 15 -8.5 32.5t-21.5 33.5t-29 26.5t-32 10.5h-264q-8 0 -19 -4t-19 -10l-74 -64q-5 -9 -6.5 -12.5t-2.5 -3.5t-1.5 0.5t-1.5 -0.5
q-14 -16 -27 -36.5t-13 -41.5v-410q0 -15 8.5 -33t22 -34t29.5 -26.5t31 -10.5h255q7 0 13 7.5t10 17t6.5 20t3.5 17.5q1 2 1 3v12h-216q-11 0 -19 9t-13 21.5t-8 25.5t-3 21v16q0 8 -0.5 21t-0.5 32v326q0 5 1 8q0 7 9.5 20.5t17.5 13.5h209q10 0 17.5 -6.5t13 -15.5
t8 -19.5t2.5 -17.5v-226q0 -4 -1 -7q0 -3 -2.5 -9t-6.5 -11.5t-8.5 -9.5t-7.5 -4h-13v0q1 0 1 1v178q0 13 -6.5 26t-16.5 23.5t-22 17t-24 6.5h-78q-12 0 -21.5 -6t-16.5 -14.5t-11.5 -18.5t-6.5 -18v-4q0 -1 -0.5 -1.5t-0.5 -2.5v-2q0 -14 13 -14q-10 -8 -10 -17zM275 456
h32q4 -6 4 -11v-172q0 -17 -3 -26.5t-19 -9.5q-9 0 -12.5 4.5t-3.5 17.5v157q0 4 2 14q1 5 1.5 9.5t0.5 11.5l-5 5h3z" />
    <glyph glyph-name="FL0041h" unicode="A" 
d="M70 616v-442l66 -80h-4h-4q-18 0 -25.5 6t-14.5 13q-8 9 -16.5 15.5t-25.5 6.5q-5 0 -7.5 -1t-4.5 -2q-3 -1 -8 -1h-5q7 -13 9 -20t6 -16q5 -14 11 -31t14.5 -31t19 -23.5t24.5 -9.5h162l-82 183v133q11 2 17 3t10.5 1.5t7.5 0.5h9h3q4 0 17 0.5t40 0.5q5 0 8.5 -0.5
t7.5 -1.5v-235q-8 -7 -17 -18.5t-11 -16.5v-4q0 -2 -0.5 -4.5t-0.5 -4.5q0 -14 5.5 -26t25.5 -12h120q16 0 20.5 9.5t4.5 20.5q0 20 -8.5 31.5t-20.5 23.5v514q0 12 4.5 19t9.5 15q7 9 12.5 19.5t5.5 32.5l-122 1q-15 0 -20 -11.5t-9 -23.5q-1 -2 -1 -5q-10 12 -24.5 26
t-29.5 14h-105q-11 0 -24 -7t-24 -17.5t-18.5 -22.5t-7.5 -22zM185 576q0 17 16 22t31 5q6 0 18.5 -1t24.5 -4.5t21 -10t9 -16.5v-150l-119 -1l-1 1v155z" />
    <glyph glyph-name="FL0042h" unicode="B" horiz-adv-x="511" 
d="M49 19q0 -5 1.5 -12t12.5 -7h317q23 0 44.5 9.5t38.5 25t27 36.5t10 44q0 24 -9.5 50.5t-24 51.5t-31 47t-30.5 37l-91 66l53 55h-1q15 14 30 30t27 34.5t19.5 39.5t7.5 45q0 23 -10 44t-27 36.5t-38.5 25t-44.5 9.5h-273q-18 0 -24.5 -9.5t-6.5 -24.5q0 -5 1 -10
q1 -7 4 -20.5t6.5 -28t6.5 -26.5t5 -17v2q0 -2 0.5 -2.5t0.5 -1.5q3 -9 7 -17.5t20 -8.5q3 1 5 1q7 8 19 19.5t25.5 22.5t27.5 18.5t25 7.5h135q10 0 15 -11t5 -20q0 -23 -16 -46t-32 -39l-88 -79v118q0 6 4 10.5t9 8.5q6 5 11 11t5 16q0 11 -8 15t-17 4q-23 0 -46 -13.5
t-41 -34t-29 -45t-11 -45.5v-384q-15 -8 -20.5 -14.5t-5.5 -20.5v-3zM241 289q2 2 5 2q15 0 38.5 -21.5t45.5 -49.5t38 -55.5t16 -38.5q0 -9 -5 -20t-15 -11h-135q-9 0 -25 8l-1 151zM80 521l2 2z" />
    <glyph glyph-name="FL0043h" unicode="C" horiz-adv-x="402" 
d="M154 668q11 8 23 13t19 5h179v-151h-39l-47 47h1q-2 2 -8 5.5t-8 3.5h-94q-3 0 -7.5 -5t-8.5 -11t-6.5 -12.5t-2.5 -9.5q-1 -5 -1 -11v-10v-315q0 -18 0.5 -31.5t0.5 -21.5v-15q0 -8 2.5 -20.5t7.5 -24t12.5 -19.5t18.5 -8h94q14 0 20.5 13.5t11.5 28.5q5 20 13.5 34.5
t28.5 14.5q15 0 21.5 -3.5t6.5 -19.5q0 -23 -11.5 -48.5t-30.5 -47t-42 -35.5t-46 -14h-137q-15 0 -31 10.5t-29 26.5t-21.5 34t-8.5 33v410q0 22 12.5 40.5t26.5 32.5v-1q5 5 11 13l6 8z" />
    <glyph glyph-name="FL0044h" unicode="D" horiz-adv-x="434" 
d="M48 22v-3q0 -5 2 -12t13 -7h263q15 0 31 10.5t29 26.5t21.5 34t8.5 33v410q0 22 -13.5 40.5t-27.5 32.5v-1q-5 5 -11 12t-8 11l-60 59q-10 8 -22.5 13t-19.5 5h-177q-2 0 -2.5 -0.5t-1.5 -0.5h-3l-13 1q-18 0 -24.5 -9.5t-6.5 -24.5q0 -5 1 -10q1 -7 4 -20.5t6.5 -28
t6.5 -26.5t5 -17v2q0 -2 0.5 -2.5t0.5 -1.5q3 -9 7 -17.5t19 -8.5q4 1 6 1q7 8 18.5 19.5t25 22.5t27.5 18.5t25 7.5h92q4 0 8.5 -3.5t8.5 -9t6.5 -10.5t2.5 -8q0 -54 0.5 -98t0.5 -80v-159q0 -19 -0.5 -32t-0.5 -21v-16q0 -8 -2.5 -21t-8 -25.5t-13.5 -21.5t-18 -9h-51
l-2 448q4 6 9 9v-1q5 4 10.5 10t5.5 17t-8.5 15t-16.5 4q-23 0 -46 -13.5t-41 -34t-29 -45t-11 -45.5v-384q-14 -8 -20 -14.5t-6 -20.5zM80 521l2 2z" />
    <glyph glyph-name="FL0045h" unicode="E" horiz-adv-x="404" 
d="M156 668q11 8 23 13t19 5h179v-151h-39l-47 47h1q-2 2 -8 5.5t-8 3.5h-94q-4 0 -8.5 -3.5t-8.5 -9t-6.5 -10.5t-2.5 -8v-133l6 -7h114q6 0 9.5 6.5t7.5 14.5q5 11 11.5 21t20.5 10q17 0 21 -13.5t4 -25.5v-3q0 -8 -1 -29t-2 -44q-2 -24 -2.5 -46t-0.5 -30q-5 -8 -8 -9.5
t-9 -1.5h-2q-13 0 -19 8t-12 19q-4 6 -7 11.5t-8 6.5q-5 4 -16.5 5.5t-25.5 1.5q-25 0 -48.5 -2t-30.5 -4l-2 -2v-3q0 -8 -0.5 -20t-0.5 -22v-87q0 -8 0.5 -13.5t0.5 -9.5v-5q0 -8 3 -21t8 -25.5t13 -21.5t18 -9h94q14 0 20.5 13.5t11.5 28.5q5 20 13.5 34.5t28.5 14.5
q15 0 21.5 -3.5t6.5 -19.5q0 -23 -11.5 -48.5t-30.5 -47t-42 -35.5t-46 -14h-137q-15 0 -31 10.5t-29 26.5t-21.5 34t-8.5 33v410q0 22 13.5 40.5t27.5 32.5v-1q4 5 10 12t9 11z" />
    <glyph glyph-name="FL0046h" unicode="F" horiz-adv-x="430" 
d="M48 22v-3q0 -5 2 -12t13 -7h152q7 6 9 8t7 9l1 2v6q0 2 -1 4l-37 39q0 29 0.5 54.5t0.5 48.5v78v35t1 32q31 6 67 6q14 0 26.5 -1t24.5 -5h-1q5 -2 9 -7.5t8 -11.5q5 -10 11.5 -18t18.5 -8h2q7 0 10 1.5t8 9.5l5 149v3q0 12 -4.5 25.5t-23.5 13.5l-49 -52h-111v61l-1 3
q0 26 7.5 37.5t12.5 17.5v-1q10 10 10 21t-8.5 15t-16.5 4q-23 0 -46 -13.5t-41 -34t-29 -45t-11 -45.5v-384q-14 -8 -20 -14.5t-6 -20.5zM314 591q2 0 8.5 -3.5t8.5 -5.5h-1l47 -47h39v151h-359q-18 0 -24.5 -9.5t-6.5 -24.5q0 -5 1 -10q1 -7 4 -20.5t6.5 -28t6.5 -26.5
t5 -17v2q0 -2 0.5 -2.5t0.5 -1.5q3 -9 7 -17.5t19 -8.5q4 1 6 1q7 8 18.5 19.5t25 22.5t27.5 18.5t25 7.5h136zM80 521l2 2z" />
    <glyph glyph-name="FL0047h" unicode="G" horiz-adv-x="430" 
d="M158 395q-2 1 -2.5 1.5t-2.5 1.5v-267q0 -7 3 -16t7.5 -17.5t11 -14.5t14.5 -6h66q9 0 17 6.5t13.5 16t9 20t3.5 18.5v269q0 5 -7 15.5t-13 10.5h-69l-34 -35q-1 -4 -2.5 -4.5t-8.5 -0.5q-5 0 -7 3zM32 545l113 121q3 3 9.5 6.5t14 6.5t15 5t11.5 2h174v-151h-40l-51 52
q-2 2 -3.5 3l-1.5 1h-100q-6 0 -13 -8.5t-7 -11.5v-109l3.5 7t2.5 7q2 3 4 8l2 5q3 4 8.5 9.5t12.5 10.5t13.5 9t11.5 4h144q8 0 18 -5t18.5 -12.5t14.5 -17t6 -18.5v-320q0 -21 -15 -46.5t-36.5 -48.5t-45.5 -38.5t-42 -15.5h-156q-13 0 -28 9.5t-27.5 23.5t-21 30t-8.5 29
v453z" />
    <glyph glyph-name="FL0048h" unicode="H" horiz-adv-x="469" 
d="M184 314q7 2 26.5 4.5t29.5 2.5h8q3 0 6.5 0.5t5.5 0.5h28h2v-271q2 -3 3 -8t3 -10l8 -22t18 -11h136q0 22 -8 33t-17 20q-8 7 -13.5 15t-5.5 19v513q11 13 19.5 24.5t8.5 30.5q0 11 -5 21t-19 10h-129q-20 0 -25 -11.5t-5 -26.5q0 -2 0.5 -3.5t0.5 -3.5v-5
q2 -5 12.5 -18t17.5 -19v-178h-109v179l1 1q11 12 19 23.5t8 30.5q0 11 -5 21t-19 10h-128q-20 0 -25.5 -11.5t-5.5 -26.5q0 -2 0.5 -3.5t0.5 -3.5v-5q2 -4 12 -17.5t17 -20.5v-549q2 -3 3 -7t3 -9q4 -11 8.5 -22t19.5 -11h136q0 22 -8.5 33t-16.5 20q-8 7 -14 15t-6 19v226
z" />
    <glyph glyph-name="FL0049h" unicode="I" horiz-adv-x="451" 
d="M82 523l-2 -2zM82 162q-2 2 -2 3q1 -2 1.5 -2.5zM409 686q18 0 24.5 -9.5t6.5 -24.5v-10q-2 -6 -5.5 -19t-7 -27.5t-6.5 -27t-4 -17.5v1q0 -2 -0.5 -3.5t-0.5 -2.5q-2 -9 -6.5 -16.5t-16.5 -7.5q-5 0 -6.5 -0.5t-0.5 -0.5q-6 7 -17.5 18t-25.5 22.5t-28.5 20t-25.5 9.5
h-111q-11 0 -25 -7.5t-27.5 -18.5t-25 -22.5t-18.5 -19.5q-2 0 -6 -1q-15 0 -19 8.5t-7 17.5q0 1 -0.5 1.5t-0.5 2.5v-2q-2 5 -5 17t-6.5 26.5t-6.5 28t-4 20.5q-1 5 -1 10q0 15 6.5 24.5t24.5 9.5h352zM57 0q-18 0 -24.5 9.5t-6.5 24.5q0 5 1 10v-1q1 6 4 19.5t6.5 28.5
t6.5 27.5t5 17.5v-2q0 1 0.5 2t0.5 2q3 9 7 17.5t19 8.5q3 -1 4 -1.5t2 -0.5q11 -12 31.5 -31.5t41.5 -29.5v340q0 21 11.5 45.5t29.5 45t40.5 34t45.5 13.5q9 0 17 -4t8 -15q0 -10 -5 -16t-11 -11q-5 -4 -9 -8.5t-4 -10.5v-419h11q11 1 25.5 9.5t28.5 20t25.5 22.5t17.5 18
q-1 -1 7 -1q12 0 16.5 -7.5t6.5 -16.5q0 -2 0.5 -3t0.5 -3v1q1 -5 4 -18t6.5 -27t7 -27t5.5 -19v-10q0 -15 -6.5 -24.5t-24.5 -9.5h-352z" />
    <glyph glyph-name="FL004Ah" unicode="J" horiz-adv-x="462" 
d="M401 511l-75 81h9q17 0 26 -7t17 -14q8 -8 18 -15t28 -7q3 0 14.5 2t16.5 4q-2 5 -6.5 14.5t-6.5 15.5q-6 15 -13.5 32.5t-17 33t-21 25.5t-25.5 10h-170l90 -185l-1 -375q0 -12 -8 -15.5t-19 -3.5h-17q-11 0 -29.5 4t-36.5 12t-31 20.5t-13 30.5q0 1 2 11q2 5 2 10v10
q0 29 -15.5 45t-32.5 16q-10 0 -20.5 -10.5t-19 -26.5t-14 -33.5t-5.5 -31.5v-7q0 -5 -0.5 -11.5t-0.5 -14.5q0 -13 0.5 -22t4.5 -13l1 -1.5t2 -2.5v1q4 -9 13.5 -24.5t30 -30.5t55 -26.5t88.5 -11.5h54q23 0 45.5 6.5t40.5 19t29 31.5t11 43v411z" />
    <glyph glyph-name="FL004Bh" unicode="K" horiz-adv-x="469" 
d="M191 316l4 -2l92 -263q5 -8 5.5 -11t2.5 -8q5 -11 10 -21.5t17 -10.5h136q0 23 -7 35t-17 23q-14 12 -21 32l-107 275l107 236l-1 -3l2 2q11 13 19.5 24.5t8.5 30.5q0 11 -5 21t-19 10h-129q-20 0 -25 -11.5t-5 -26.5q0 -2 0.5 -3.5t0.5 -3.5v-6q1 -5 9.5 -16t15.5 -18
l-80 -181h-24v180q12 13 20 24.5t8 30.5q0 11 -5 21t-19 10h-128q-20 0 -25.5 -11.5t-5.5 -26.5q0 -2 0.5 -3.5t0.5 -3.5v-5l2 -4q2 -2 5 -5.5t5 -5.5q5 -6 8.5 -11.5t7.5 -9.5v-549q2 -3 3.5 -8t3.5 -10q4 -11 9 -22t19 -11h142l-51 89v224z" />
    <glyph glyph-name="FL004Ch" unicode="L" horiz-adv-x="417" 
d="M40 667q0 5 1.5 11.5t11.5 6.5h150q2 0 8 -6t10 -11q1 -3 1 -8l-1 -3l-34 -33v-421l-1 -2q0 -27 8.5 -45t16.5 -29q4 -7 7.5 -12t3.5 -10t-4 -11h86q2 0 9 3.5t9 5.5h-1l46 47h39v-151h-349q-18 0 -24.5 9.5t-6.5 24.5q0 5 1 10v-1q1 5 2 13t2 17l4 34t7 32q1 2 0 1.5
t0 1.5l-1 -1q3 8 6.5 15t16.5 7h3q5 0 4 1q6 -7 17 -17.5t23.5 -21t26 -19t24.5 -10.5q-19 10 -36.5 28t-31 39t-22 42.5t-8.5 39.5v382q-14 8 -19 15.5t-5 21.5v4z" />
    <glyph glyph-name="FL004Dh" unicode="M" horiz-adv-x="720" 
d="M659 175v441q0 10 -7.5 22.5t-19 23t-25 17.5t-24.5 7h-106q-9 0 -19.5 -5t-20.5 -11.5t-19 -14t-14 -12.5q-12 14 -26.5 28.5t-28.5 14.5h-101q-15 0 -30 -13t-24 -24v2q-5 12 -11 23.5t-19 11.5h-138q0 -20 7.5 -32t18.5 -22h-1q8 -8 14 -15t6 -18v-515l-1 -1
q-11 -12 -19 -23.5t-8 -29.5q0 -11 5.5 -20.5t19.5 -9.5h129q20 0 26 11.5t6 25.5q0 2 -0.5 4.5t-0.5 4.5v6l-6 6q-5 5 -11.5 13t-10.5 13v487q0 10 8 16.5t19 10t22 5t18 1.5q9 0 20 -3t19 -9v-508l-1 -1q-11 -12 -19 -23.5t-8 -29.5q0 -11 5 -20.5t19 -9.5h124
q20 0 25.5 11.5t5.5 25.5q0 2 -0.5 4.5t-0.5 4.5v6q-1 1 -4 5.5t-5 6.5q-5 5 -10 11t-9 10v486q0 10 8 16.5t19 10t22 5t18 1.5q14 0 30 -5t16 -22v-393l-91 -184h173q15 0 26.5 11t21.5 27t17.5 35t13.5 34q2 5 4.5 13t4.5 12q-4 2 -15 3t-14 1q-18 0 -28.5 -7t-18.5 -15
q-8 -7 -17 -13.5t-27 -6.5h-4h-4z" />
    <glyph glyph-name="FL004Eh" unicode="N" horiz-adv-x="487" 
d="M426 174l-75 -81h8q18 0 27 6.5t17 13.5q8 8 17.5 15t28.5 7q3 0 14 -1t17 -3q-2 -5 -6.5 -15t-6.5 -16q-6 -15 -13.5 -32.5t-17 -33t-21 -25.5t-25.5 -10h-171l91 185v392q0 8 -4.5 13.5t-11.5 8.5t-15 4t-15 1t-19 -1t-24 -4.5t-20.5 -10t-8.5 -16.5v-486q4 -4 9 -10
t10 -11q2 -2 5 -6.5t4 -5.5v-6q0 -2 0.5 -4.5t0.5 -4.5q0 -14 -5.5 -25.5t-25.5 -11.5h-123q-14 0 -19 9t-5 20q0 20 8 31.5t20 23.5v514q0 11 -6.5 18.5t-14.5 14.5h1q-10 10 -17.5 22t-7.5 32h136q12 0 18 -11.5t10 -22.5h-1l2 -4q9 11 24 24.5t30 13.5h107q10 0 22.5 -7
t24 -17.5t19.5 -22.5t8 -22v-442z" />
    <glyph glyph-name="FL004Fh" unicode="O" horiz-adv-x="431" 
d="M186 573q0 -13 -6.5 -23.5t-14.5 -18.5q-5 -7 -9.5 -13.5t-4.5 -14.5v-372q0 -14 6 -23.5t15.5 -15t21.5 -8t23 -2.5q39 0 53 19.5t14 57.5v401q0 9 -11 18.5t-21 12.5h-22q-4 0 -7.5 0.5t-6.5 0.5h-9q-24 0 -44 -1.5t-40 -9.5q-3 -1 -10.5 -5.5t-16.5 -10.5h1
q-11 -8 -24 -16.5t-27 -8.5q-11 0 -14 5.5t-3 13.5v12q0 2 0.5 3.5t0.5 3.5q6 13 17 32t24.5 35.5t29 28.5t31.5 12h154q23 0 46 -12.5t42 -32.5t30.5 -44.5t11.5 -48.5v-366q0 -16 -7 -35t-16 -32v1q-20 -31 -41 -53t-45 -36.5t-53 -21t-65 -6.5h-25q-4 0 -8 0.5t-9 0.5
h-11q-14 3 -31.5 12.5t-32.5 23t-25.5 29.5t-10.5 33v399q0 16 17.5 31t41 26.5t47 18.5t36.5 7z" />
    <glyph glyph-name="FL0050h" unicode="P" horiz-adv-x="459" 
d="M82 523l-2 -2zM48 22q0 14 6 20.5t20 14.5v384q0 21 11.5 45.5t29.5 45t41 34t46 13.5q8 0 16.5 -4t8.5 -15q0 -10 -5.5 -16t-11.5 -11q-12 -9 -12 -19v-118l87 79h-1q17 16 33 39t16 46q0 9 -5 20t-16 11h-134q-11 0 -25 -7.5t-27.5 -18.5t-25 -22.5t-18.5 -19.5
q-2 0 -6 -1q-15 0 -19 8.5t-7 17.5q0 1 -0.5 1.5t-0.5 2.5v-2q-2 5 -5 17t-6.5 26.5t-6.5 28t-4 20.5q-1 5 -1 10q0 15 6.5 24.5t24.5 9.5h272q22 0 43.5 -9.5t38.5 -25t27 -36.5t10 -44q0 -25 -8 -47.5t-20.5 -42t-28 -36.5t-30.5 -31l-158 -142v-211l28 -34q1 -3 1 -8
l-1 -2q-5 -7 -6.5 -9t-8.5 -8h-153q-11 0 -13 7t-2 12v3z" />
    <glyph glyph-name="FL0051h" unicode="Q" horiz-adv-x="440" 
d="M153 504q0 8 4.5 14.5t9.5 13.5q8 9 14 20t6 30q-13 0 -38 -7t-49.5 -18.5t-43 -26.5t-18.5 -31v-401q0 -17 10.5 -33t25.5 -29.5t32.5 -23t31.5 -12.5h11q5 0 9 -0.5t8 -0.5h32h1v-36q0 -5 5 -12.5t12.5 -14t14.5 -11t12 -4.5h125q0 24 -9.5 32.5t-20.5 14.5
q-7 4 -12.5 7t-5.5 10v47q21 15 39 35t37 49q8 12 15.5 31.5t7.5 34.5v368q0 23 -11.5 47.5t-30.5 44.5t-42 33t-46 13h-154q-21 0 -37.5 -12t-29 -29t-21.5 -35.5t-15 -32.5v-24q0 -13 16 -13q12 0 25.5 8t27.5 17q18 13 25 16q20 8 40 9.5t43 1.5h9q3 0 6.5 -0.5t7.5 -0.5
h22q10 -3 21 -13t11 -19l1 -319q-19 22 -44 44h1q-6 6 -13.5 14t-13.5 14t-9 8t1 -2l-56 -23v207zM153 131v149l46 -62v-134q-18 4 -32 15.5t-14 31.5z" />
    <glyph glyph-name="FL0052h" unicode="R" horiz-adv-x="495" 
d="M82 523l-2 -2zM48 22q0 14 6 20.5t21 14.5v384q0 21 11 45.5t29 45t41 34t46 13.5q9 0 17 -4t8 -15q0 -10 -5 -16t-11 -11q-5 -4 -9 -8.5t-4 -10.5v-118l88 79h-1q16 16 32.5 39t16.5 46q0 9 -5 20t-16 11h-134q-11 0 -25 -7.5t-27.5 -18.5t-25.5 -22.5t-19 -19.5
q-2 0 -5 -1q-16 0 -20 8.5t-7 17.5q0 1 -0.5 1.5t-0.5 2.5v-2q-2 5 -5 17t-6.5 26.5t-6.5 28t-4 20.5q-1 5 -1 10q0 15 6.5 24.5t24.5 9.5h273q23 0 44.5 -9.5t38 -25t26.5 -36.5t10 -44t-7 -42t-18.5 -35t-25.5 -30.5t-29 -27.5q9 -10 20.5 -23t21.5 -27t17 -29t7 -29v-264
q0 -6 5.5 -9.5t12.5 -7.5q11 -6 21 -14.5t10 -32.5h-126q-5 0 -12 5t-14.5 11.5t-12.5 13.5t-5 11v259q0 7 -4 17.5t-10 20t-13.5 16.5t-14.5 7q-6 -4 -11 -6l-57 -59v-235l28 -34q1 -3 1 -8l-1 -2q-5 -7 -7 -9l-8 -8h-154q-11 0 -13 7t-2 12v3z" />
    <glyph glyph-name="FL0053h" unicode="S" horiz-adv-x="447" 
d="M120 186q8 0 17.5 -13.5t20.5 -30.5q10 -14 19.5 -28.5t20.5 -23.5q1 -1 3 -1h77q9 0 20 12.5t20.5 30t16.5 35.5t7 29q0 21 -10 36.5t-27 27t-39 20t-45 17.5q-30 11 -60 23.5t-54 31.5t-39 46.5t-15 68.5q0 29 14.5 67t37.5 71.5t51 57t55 23.5h179l18 -9v-8
q0 -2 0.5 -4t0.5 -4q0 -29 -13.5 -58t-27.5 -53q-5 -8 -8 -14t-5 -11q-4 -2 -10 -2.5t-9 -0.5q-11 0 -18.5 9t-15.5 21q-10 15 -23.5 30t-39.5 15q-15 0 -31 -7t-28.5 -18t-20.5 -26.5t-8 -31.5q0 -19 9 -32t24 -22.5t34.5 -17t40.5 -14.5q31 -11 62.5 -23.5t57 -34t42 -54
t16.5 -83.5v-24q0 -20 -4 -40t-17 -36h1l-90 -133h-321q4 5 13 15.5t13 15.5q15 19 28.5 37t21.5 43q0 6 1.5 18t5.5 25t11.5 22.5t19.5 9.5z" />
    <glyph glyph-name="FL0054h" unicode="T" horiz-adv-x="451" 
d="M129 22v-3q0 -5 2 -12t13 -7h153l8 8t7 9l1 2v6t-1 3l-34 33v453q0 6 4 10.5t9 8.5q6 5 11 11t5 16q0 11 -8 15t-17 4q-23 0 -45.5 -13.5t-40.5 -34t-29.5 -45t-11.5 -45.5v-384q-14 -8 -20 -14.5t-6 -20.5zM57 686q-18 0 -24.5 -9.5t-6.5 -24.5q0 -5 1 -10q1 -7 4 -20.5
t6.5 -28t6.5 -26.5t5 -17v2q0 -2 0.5 -2.5t0.5 -1.5q3 -9 7 -17.5t19 -8.5q4 1 6 1q7 8 18.5 19.5t25 22.5t27.5 18.5t25 7.5h111q11 -1 25.5 -9.5t28.5 -20t25.5 -22.5t17.5 -18q-1 0 0.5 0.5t6.5 0.5q12 0 16.5 7.5t6.5 16.5q0 1 0.5 2.5t0.5 3.5v-1q1 5 4 17.5t6.5 27
t7 27.5t5.5 19v10q0 15 -6.5 24.5t-24.5 9.5h-352zM80 521l2 2z" />
    <glyph glyph-name="FL0055h" unicode="U" horiz-adv-x="487" 
d="M76 511l75 81h-8q-17 0 -26.5 -7t-16.5 -14q-8 -8 -18.5 -15t-28.5 -7q-3 0 -14.5 2t-16.5 4q0 1 3 7l7 14t5 11q6 15 13 32t16.5 32t20.5 25t25 10h171l-91 -185v-392q0 -17 16.5 -22t30.5 -5q6 0 18.5 1.5t24.5 5.5t21 10.5t9 17.5v485q-8 5 -21 15.5t-15 18.5v5
q0 2 -0.5 3.5t-0.5 3.5q0 15 5.5 26.5t25.5 11.5h129q16 0 20.5 -10t4.5 -21q0 -19 -7.5 -30t-18.5 -22l-3 -3v-513q0 -11 6 -19t13 -15q10 -10 18 -21t8 -32h-136q-16 0 -20.5 11t-8.5 22q-1 1 -1 2t-1 2q-8 -11 -23.5 -24t-29.5 -13h-105q-11 0 -24 7t-24.5 17.5t-19 22.5
t-7.5 22v442z" />
    <glyph glyph-name="FL0056h" unicode="V" horiz-adv-x="421" 
d="M209 634q-3 -5 -13.5 -16t-17.5 -18l46 -263l61 263v-2q0 11 -6 18t-14 15h1q-10 10 -17.5 22t-7.5 32h136q16 0 24.5 -16t8.5 -37l-160 -616l-26 -15l-35 10l-134 588l-3 4q-11 11 -18.5 22t-7.5 30q0 11 4.5 21t20.5 10h127q20 0 25.5 -11.5t5.5 -26.5v-14z" />
    <glyph glyph-name="FL0057h" unicode="W" horiz-adv-x="720" 
d="M77 511v-442q0 -10 7.5 -22t19 -22.5t25 -17.5t24.5 -7h106q8 0 18.5 4.5t20.5 11t19 13.5t15 12q10 -14 25.5 -27.5t29.5 -13.5h101q14 0 28 13t23 24v-1l2 2q1 -2 1 -3l1 -2q4 -11 9.5 -22t19.5 -11h137q0 22 -8 33t-17 20q-8 7 -13.5 15t-5.5 19v513l1 1
q11 12 19 23.5t8 30.5q0 11 -5.5 21t-19.5 10h-129q-20 0 -26 -11.5t-6 -26.5q0 -2 0.5 -3.5t0.5 -3.5v-3q0 -1 0.5 -2t0.5 -2q5 -7 14 -18t14 -17v-484q0 -11 -8 -17t-19 -10t-22 -5t-18 -1q-11 0 -21.5 2t-18.5 9v507l1 1q11 12 19 23.5t8 30.5q0 11 -5 21t-19 10h-124
q-20 0 -25.5 -11.5t-5.5 -26.5q0 -2 0.5 -3.5t0.5 -3.5v-7q2 -5 11 -17t17 -18v-484q0 -11 -8 -17t-19 -10t-22 -5t-18 -1t-15 1t-15 4t-11.5 8.5t-4.5 13.5v392l91 185h-173q-14 0 -25 -10t-20.5 -25t-17 -32t-13.5 -32q-1 -3 -4.5 -11t-6.5 -14t-3 -7q4 -2 16 -4t15 -2
q18 0 28.5 7t18.5 15q8 7 17 14t27 7h8z" />
    <glyph glyph-name="FL0058h" unicode="X" horiz-adv-x="421" 
d="M170 631q9 9 17 21t8 33h-135q-16 0 -25 -15.5t-9 -36.5l122 -291l-122 -290q1 -24 8 -38t26 -14h135q0 22 -8 33t-17 20q-7 7 -13 14.5t-6 18.5l54 122l52 -125l-1 -2q-7 -7 -15 -14t-13 -20v-10q0 -15 5.5 -26.5t24.5 -11.5h127q16 0 20.5 9.5t4.5 20.5q0 20 -9 32
t-22 25l1 -3l-116 259l116 259l-1 -3l5 5q11 11 18.5 22t7.5 30q0 11 -4.5 21t-20.5 10h-127q-19 0 -24.5 -11.5t-5.5 -26.5v-12q2 -5 12 -16t17 -19l-52 -125l-54 122q0 11 6 19t13 14z" />
    <glyph glyph-name="FL0059h" unicode="Y" horiz-adv-x="470" 
d="M150 236h-6q4 -9 4 -22q0 -16 -4 -31q-1 -4 -1 -10q0 -19 15 -33t35.5 -23.5t41.5 -14.5t32 -5q3 0 6 -0.5t7 -0.5h12q9 0 15.5 2.5t6.5 10.5v150q-3 5 -4.5 8l-2.5 5q-10 -11 -23.5 -23.5t-27.5 -12.5h-106zM76 511l75 81h-8q-17 0 -26.5 -7t-16.5 -14q-8 -8 -18.5 -15
t-28.5 -7q-3 0 -14.5 2t-16.5 4q0 1 3 7l7 14t5 11q6 15 13 32t16.5 32t20.5 25t25 10h171l-91 -185l-1 -156q0 -17 16 -22t30 -5q6 0 17.5 1t22.5 4.5t19 9.5t8 17v250q-4 3 -7.5 7.5t-6.5 8.5h1q-4 5 -8.5 11t-6.5 9v5q0 2 -0.5 3.5t-0.5 3.5q0 15 5.5 26.5t25.5 11.5h128
q16 0 20.5 -10t4.5 -21q0 -19 -8.5 -31t-20.5 -24q-1 -1 -1 -2v-529q0 -10 -8 -22t-19.5 -22.5t-24 -17.5t-22.5 -7h-106q-55 0 -89.5 11t-55 26t-30 30.5t-13.5 24.5v-1q-2 2 -2.5 4t0.5 1q-4 4 -4.5 13t-0.5 22q0 8 0.5 14.5t0.5 11.5v7q0 11 3.5 24.5t9.5 27t13.5 25.5
t16.5 18q-16 14 -23 44z" />
    <glyph glyph-name="FL005Ah" unicode="Z" horiz-adv-x="468" 
d="M57 686q-18 0 -24.5 -9.5t-6.5 -24.5q0 -5 1 -10q1 -7 4 -20.5t6.5 -28t6.5 -26.5t5 -17v2q0 -2 0.5 -2.5t0.5 -1.5q3 -9 7 -17.5t19 -8.5q4 1 6 1q7 8 18.5 19.5t25.5 22.5t28 18.5t25 7.5h108l1 -1l-189 -418v-6q0 -17 10 -30t23 -18q16 -6 32 -6q12 0 18.5 0.5t10.5 2
t7 5.5t7 11q16 37 37 84t44 95t46 94.5t43.5 83.5t37.5 60t28 25q9 9 11.5 25.5t2.5 33.5q0 6 -0.5 11t-0.5 10v12q0 12 -10 16.5t-24 4.5h-365zM415 -1q18 0 24.5 9.5t6.5 24.5v3t-2 9q-2 4 -5 15.5t-6.5 25.5t-6 27t-3.5 19v-1q0 1 -0.5 2.5t-0.5 2.5q-3 10 -6.5 18
t-17.5 8h-2q-5 0 -5 1q-6 -7 -18 -18.5t-26 -23t-28 -19.5t-26 -8h-111q-11 1 -24.5 7.5t-26 14.5t-24 17.5t-17.5 16.5q-1 0 -2 0.5t-4 1.5q-24 0 -30 -18q-2 -5 -5 -18t-6.5 -27t-6.5 -27t-4 -19q-1 -5 -1 -10q0 -15 6.5 -24.5t24.5 -9.5h353zM80 521l2 2zM90 150
l-0.5 0.5t-1.5 2.5q0 -1 2 -3z" />
    <glyph glyph-name="FL005Bh" unicode="[" horiz-adv-x="306" 
d="M83 87q-15 15 -33 37.5t-18 46.5v411q0 15 8.5 33t21.5 34t29 26.5t31 10.5h135q7 0 13 -7.5t10 -17.5t6.5 -20.5t3.5 -17.5q1 -2 1 -4v-11h-99q-11 0 -18.5 -9t-12.5 -21t-7.5 -25t-2.5 -21v-18q0 -8 -0.5 -20.5t-0.5 -30.5v-326q0 -5 1 -8q0 -4 2.5 -10t6 -11t8 -9
t7.5 -4h94q3 0 11.5 -25t10.5 -70h-99q-7 0 -19.5 5t-22.5 13z" />
    <glyph glyph-name="FL005Ch" unicode="\" horiz-adv-x="421" 
d="M57 598l-1 3l229 -515q-1 -11 -6.5 -18t-13.5 -15h1q-10 -10 -17.5 -21.5t-7.5 -31.5h136q15 0 19.5 11t7.5 22q2 5 3 8.5t4 8.5l-233 551l17.5 17.5t13.5 15.5v14q0 15 -5.5 26.5t-25.5 11.5h-127q-16 0 -20.5 -10t-4.5 -21q0 -19 7.5 -30t18.5 -22z" />
    <glyph glyph-name="FL005Dh" unicode="]" horiz-adv-x="306" 
d="M231 605l12 -13q15 -15 30 -34.5t15 -43.5v-410q0 -15 -8.5 -33t-21.5 -34t-29 -26.5t-31 -10.5h-136q-7 0 -12 6t-8.5 14.5t-6 18t-4.5 17.5q-1 3 -1 4q0 2 5 2v15h92q10 0 18 9t13.5 21.5t8 25.5t2.5 21v16q0 8 0.5 21t0.5 32v326q0 5 -1 8q0 3 -2.5 9t-6.5 11.5
t-8.5 9.5t-7.5 4h-93q-4 0 -12 24.5t-10 70.5h98q8 0 19.5 -4t17.5 -10z" />
    <glyph glyph-name="FL005Eh" unicode="^" horiz-adv-x="421" 
d="M257 82l1 1q1 0 2 1l-46 265l-62 -263q1 -11 6 -18.5t13 -13.5q10 -10 18 -21t8 -32h-135q-16 0 -25 16t-9 37l160 616l27 14l34 -10l133 -589l4 -3q11 -11 18.5 -22t7.5 -30q0 -11 -4.5 -20.5t-20.5 -9.5h-128q-20 0 -25 11.5t-5 25.5q0 2 0.5 4.5t0.5 4.5v2
q5 12 13 19.5t14 14.5z" />
    <glyph glyph-name="FL005Fh" unicode="_" horiz-adv-x="355" 
d="M76 105q-2 -1 -6.5 -2.5t-9.5 -3.5h1q-10 -3 -19.5 -7.5t-13.5 -14.5q-2 -2 -2 -13v-30q0 -9 1 -12q4 -12 22 -22t44 -10l169 1q4 -1 13 -1q10 0 22 2t22.5 5.5t17.5 7.5t7 8v62q0 15 -11 22.5t-29 7.5h-228z" />
    <glyph glyph-name="FL0060h" unicode="`" horiz-adv-x="180" 
d="M46 553l9 -7q10 -10 26.5 -24.5t36.5 -24.5q3 -2 13 -2q13 0 25.5 7.5t12.5 24.5q0 11 -5 17q-14 33 -37.5 54t-43.5 26q-6 2 -12 2h-15q-14 0 -22 -13.5t-11 -24.5z" />
    <glyph glyph-name="FL0061h" unicode="a" 
d="M70 616v-442l66 -80h-4h-4q-18 0 -25.5 6t-14.5 13q-8 9 -16.5 15.5t-25.5 6.5q-2 0 -9.5 -2.5t-12.5 -7.5q3 -6 5.5 -13.5t6.5 -16.5q5 -14 11 -31t14.5 -31t19 -23.5t24.5 -9.5h162l-82 183v133q11 2 17 3t10.5 1.5t7.5 0.5h9h3q4 0 17 0.5t40 0.5q5 0 8.5 -0.5
t7.5 -1.5v-235q-8 -7 -17 -18.5t-11 -16.5v-4q0 -2 -0.5 -4.5t-0.5 -4.5q0 -14 5.5 -26t25.5 -12h120q16 0 20.5 9.5t4.5 20.5q0 20 -8.5 31.5t-20.5 23.5v514q0 12 4.5 19t9.5 15q7 9 12.5 19.5t5.5 32.5l-122 1q-15 0 -20 -11.5t-9 -23.5q-1 -2 -1 -5q-10 12 -24.5 26
t-29.5 14h-105q-11 0 -24 -7t-24 -17.5t-18.5 -22.5t-7.5 -22zM185 576q0 17 16 22t31 5q6 0 18.5 -1t24.5 -4.5t21 -10t9 -16.5v-150l-119 -1l-1 1v155z" />
    <glyph glyph-name="FL0062h" unicode="b" horiz-adv-x="511" 
d="M49 19q0 -5 1.5 -12t12.5 -7h317q23 0 44.5 9.5t38.5 25t27 36.5t10 44q0 24 -9.5 50.5t-24 51.5t-31 47t-30.5 37l-91 66l53 55h-1q15 14 30 30t27 34.5t19.5 39.5t7.5 45q0 23 -10 44t-27 36.5t-38.5 25t-44.5 9.5h-273q-18 0 -24.5 -9.5t-6.5 -24.5q0 -5 1 -10
q1 -7 4 -20.5t6.5 -28t6.5 -26.5t5 -17v2q0 -2 0.5 -2.5t0.5 -1.5q3 -9 7 -17.5t20 -8.5q3 1 5 1q7 8 19 19.5t25.5 22.5t27.5 18.5t25 7.5h135q10 0 15 -11t5 -20q0 -23 -16 -46t-32 -39l-88 -79v118q0 6 4 10.5t9 8.5q6 5 11 11t5 16q0 11 -8 15t-17 4q-23 0 -46 -13.5
t-41 -34t-29 -45t-11 -45.5v-384q-15 -8 -20.5 -14.5t-5.5 -20.5v-3zM241 289q2 2 5 2q15 0 38.5 -21.5t45.5 -49.5t38 -55.5t16 -38.5q0 -9 -5 -20t-15 -11h-135q-9 0 -25 8l-1 151zM80 521l2 2z" />
    <glyph glyph-name="FL0063h" unicode="c" horiz-adv-x="402" 
d="M154 668q11 8 23 13t19 5h179v-151h-39l-47 47h1q-2 2 -8 5.5t-8 3.5h-94q-3 0 -7.5 -5t-8.5 -11t-6.5 -12.5t-2.5 -9.5q-1 -5 -1 -11v-10v-315q0 -18 0.5 -31.5t0.5 -21.5v-15q0 -8 2.5 -20.5t7.5 -24t12.5 -19.5t18.5 -8h94q14 0 20.5 13.5t11.5 28.5q5 20 13.5 34.5
t28.5 14.5q15 0 21.5 -3.5t6.5 -19.5q0 -23 -11.5 -48.5t-30.5 -47t-42 -35.5t-46 -14h-137q-15 0 -31 10.5t-29 26.5t-21.5 34t-8.5 33v410q0 22 12.5 40.5t26.5 32.5v-1q5 5 11 13l6 8z" />
    <glyph glyph-name="FL0064h" unicode="d" horiz-adv-x="434" 
d="M48 22v-3q0 -5 2 -12t13 -7h263q15 0 31 10.5t29 26.5t21.5 34t8.5 33v410q0 22 -13.5 40.5t-27.5 32.5v-1q-5 5 -11 12t-8 11l-60 59q-10 8 -22.5 13t-19.5 5h-177q-2 0 -2.5 -0.5t-1.5 -0.5h-3l-13 1q-18 0 -24.5 -9.5t-6.5 -24.5q0 -5 1 -10q1 -7 4 -20.5t6.5 -28
t6.5 -26.5t5 -17v2q0 -2 0.5 -2.5t0.5 -1.5q3 -9 7 -17.5t19 -8.5q4 1 6 1q7 8 18.5 19.5t25 22.5t27.5 18.5t25 7.5h92q4 0 8.5 -3.5t8.5 -9t6.5 -10.5t2.5 -8q0 -54 0.5 -98t0.5 -80v-159q0 -19 -0.5 -32t-0.5 -21v-16q0 -8 -2.5 -21t-8 -25.5t-13.5 -21.5t-18 -9l-62 -4
v448q3 5 12 10q8 5 15 12t7 17q0 11 -8.5 15t-16.5 4q-21 -2 -43 -16.5t-40 -35t-30.5 -43.5t-13.5 -43v-384q-14 -8 -20 -14.5t-6 -20.5zM80 521l2 2z" />
    <glyph glyph-name="e" unicode="e" horiz-adv-x="399" 
d="M150 668q11 8 23 13t20 5h179v-151h-40l-47 47h1q-2 2 -8 5.5t-8 3.5h-94q-3 0 -7.5 -3.5t-8.5 -9t-7 -10.5t-3 -8v-133l6 -7h114q6 0 10 6.5t7 14.5q5 11 12 21t20 10q17 0 21 -13.5t4 -25.5v-3q0 -8 -1 -29t-2 -44q-2 -24 -2.5 -46t-0.5 -30q-5 -8 -8 -9.5t-9 -1.5h-2
q-12 0 -18.5 8t-12.5 19q-3 6 -6.5 11.5t-8.5 6.5q-5 4 -16.5 5.5t-25.5 1.5q-25 0 -48.5 -2t-30.5 -4l-2 -2v-71v-61v-23v-5q0 -8 3 -21t8 -25.5t13 -21.5t19 -9h93q14 0 20.5 13.5t11.5 28.5q6 20 14 34.5t28 14.5q15 0 21.5 -3.5t6.5 -19.5q0 -23 -11.5 -48.5t-30.5 -47
t-42 -35.5t-45 -14h-138q-15 0 -31 10.5t-29 26.5t-21.5 34t-8.5 33v410q0 22 13.5 40.5t27.5 32.5v-1q5 5 10.5 12t8.5 11z" />
    <glyph glyph-name="FL0066h" unicode="f" horiz-adv-x="429" 
d="M82 523l-2 -2zM178 591q-11 0 -25 -7.5t-27.5 -18.5t-25 -22.5t-18.5 -19.5q-2 0 -6 -1q-15 0 -19 8.5t-7 17.5q0 1 -0.5 1.5t-0.5 2.5v-2q-2 5 -5 17t-6.5 26.5t-6.5 28t-4 20.5q-1 5 -1 10q0 15 6.5 24.5t24.5 9.5h359v-151h-39l-47 47h1q-2 2 -8.5 5.5t-8.5 3.5h-136z
M48 22q0 14 6 20.5t20 14.5v384q0 21 11 45.5t29 45t41 34t46 13.5q8 0 16.5 -4t8.5 -15t-10 -21v1q-5 -6 -12.5 -17.5t-7.5 -37.5l1 -3v-61h111l49 52q18 0 23 -12t5 -23l-5 -156q-5 -8 -8 -9.5t-10 -1.5h-2q-12 0 -18.5 8t-11.5 18q-4 6 -7.5 11t-7.5 7q-6 4 -12.5 5
t-19.5 1q-24 0 -87 -6q-1 -16 -1 -32v-34v-78q0 -23 -0.5 -48.5t-0.5 -54.5q17 -17 21 -25t4 -13v-1l13 -8q-2 -3 -7 -9.5t-10 -11.5h-152q-11 0 -13 7t-2 12v3z" />
    <glyph glyph-name="g" unicode="g" horiz-adv-x="430" 
d="M159 395q-1 0 -5 2v-266q0 -7 2.5 -16t7.5 -17.5t11.5 -14.5t14.5 -6h66q9 0 17 6.5t13.5 16t9 20t3.5 18.5v269q0 5 -7 15.5t-14 10.5h-68l-34 -35q-1 -4 -2.5 -4.5t-8.5 -0.5q-3 0 -6 2zM33 544l112 121q3 3 10 6.5t14.5 7t15 5.5t11.5 2h173v-151h-39l-52 52
q-1 2 -3 3l-2 1h-100q-5 0 -12 -8.5t-7 -11.5v-108q4 9 7 16.5t5 11.5l8.5 8.5t12 10.5t13 8.5t11.5 3.5h145q7 0 17 -5t19 -12.5t15 -17t6 -18.5v-320q0 -21 -15 -46.5t-36.5 -48.5t-46 -38.5t-42.5 -15.5h-155q-13 0 -28 9.5t-27.5 23.5t-21 30t-8.5 29v452z" />
    <glyph glyph-name="FL0068h" unicode="h" horiz-adv-x="469" 
d="M184 314q7 2 26.5 4.5t29.5 2.5h8q3 0 6.5 0.5t5.5 0.5h28h2v-271q2 -3 3 -8t3 -10l8 -22t18 -11h136q0 22 -8 33t-17 20q-8 7 -13.5 15t-5.5 19v513l1 1q11 12 19 23.5t8 30.5q0 11 -5 21t-19 10h-129q-20 0 -25 -11.5t-5 -26.5q0 -2 0.5 -3.5t0.5 -3.5v-5
q2 -5 12.5 -18t17.5 -19v-178h-109v179l1 1q11 12 19 23.5t8 30.5q0 11 -5 21t-19 10h-128q-20 0 -25.5 -11.5t-5.5 -26.5q0 -2 0.5 -3.5t0.5 -3.5v-5q2 -4 12 -17.5t17 -20.5v-549q2 -3 3 -7t3 -9q4 -11 8.5 -22t19.5 -11h136q0 22 -8.5 33t-16.5 20q-8 7 -14 15t-6 19v226
z" />
    <glyph glyph-name="FL0069h" unicode="i" horiz-adv-x="227" 
d="M53 51q4 -6 6 -18q4 -11 9 -22t18 -11h130q0 22 -8 33t-16 20q-7 7 -12.5 15t-5.5 19v513l1 1q11 12 18.5 23.5t7.5 30.5q0 11 -5 21t-18 10h-123q-19 0 -24.5 -11.5t-5.5 -26.5q0 -2 0.5 -3.5t0.5 -3.5v-3q0 -1 0.5 -2t0.5 -2q5 -7 13 -18t13 -17v-548z" />
    <glyph glyph-name="FL006Ah" unicode="j" horiz-adv-x="462" 
d="M401 511l-75 81h9q17 0 26 -7t17 -14q8 -8 18 -15t28 -7q3 0 14.5 2t16.5 4q-2 5 -6.5 14.5t-6.5 15.5q-6 15 -13.5 32.5t-17 33t-21 25.5t-25.5 10h-170l90 -185l-1 -375q0 -12 -8 -15.5t-19 -3.5h-17q-11 0 -29.5 4t-36.5 12t-31 20.5t-13 30.5q0 1 2 11q2 5 2 10v10
q0 29 -15.5 45t-32.5 16q-10 0 -20.5 -10.5t-19 -26.5t-14 -33.5t-5.5 -31.5v-7q0 -5 -0.5 -11.5t-0.5 -14.5q0 -13 0.5 -22t4.5 -13l1 -1.5t2 -2.5v1q4 -9 13.5 -24.5t30 -30.5t55 -26.5t88.5 -11.5h54q23 0 45.5 6.5t40.5 19t29 31.5t11 43v411z" />
    <glyph glyph-name="FL006Bh" unicode="k" horiz-adv-x="469" 
d="M188 315h-1q1 0 1.5 0.5t1.5 0.5q1 -1 5 -3l92 -262q5 -8 5.5 -11t2.5 -8q5 -11 10 -21.5t17 -10.5h136q0 23 -7 35t-17 23q-14 12 -21 32l-107 275l107 236l-1 -3l3 3q11 12 19 23.5t8 30.5q0 11 -5 21t-19 10h-129q-20 0 -25 -11.5t-5 -26.5q0 -2 0.5 -3.5t0.5 -3.5v-6
q1 -5 9.5 -16t15.5 -18l-80 -181l-24 1v179l1 1q11 12 19 23.5t8 30.5q0 11 -5 21t-19 10h-128q-20 0 -25.5 -11.5t-5.5 -26.5q0 -2 0.5 -3.5t0.5 -3.5v-3q0 -1 0.5 -2t0.5 -2q5 -7 13.5 -18t13.5 -17v-548q2 -3 3.5 -8t3.5 -10q4 -11 9 -22t19 -11h136q0 22 -8.5 33
t-16.5 20q-8 7 -14 15t-6 19v226zM187 317l-1 2q2 -2 4 -3q-2 0 -3 1z" />
    <glyph glyph-name="FL006Ch" unicode="l" horiz-adv-x="417" 
d="M40 667q0 5 1.5 11.5t11.5 6.5h150q2 0 8 -6t10 -11q1 -3 1 -8l-1 -3l-34 -33v-421l-1 -2q0 -27 8.5 -45t16.5 -29q4 -7 7.5 -12t3.5 -10t-4 -11h86q2 0 9 3.5t9 5.5h-1l46 47h39v-151h-349q-18 0 -24.5 9.5t-6.5 24.5q0 5 1 10v-1q1 5 2 13t2 17l4 34t7 32q1 2 0 1.5
t0 1.5l-1 -1q3 8 6.5 15t16.5 7h3q5 0 4 1q6 -7 17 -17.5t23.5 -21t26 -19t24.5 -10.5q-19 10 -36.5 28t-31 39t-22 42.5t-8.5 39.5v382q-14 8 -19 15.5t-5 21.5v4z" />
    <glyph glyph-name="FL006Dh" unicode="m" horiz-adv-x="720" 
d="M659 175v441q0 10 -7.5 22.5t-19 23t-25 17.5t-24.5 7h-106q-9 0 -19.5 -5t-20.5 -11.5t-19 -14t-14 -12.5q-12 14 -26.5 28.5t-28.5 14.5h-101q-15 0 -30 -13t-24 -24v2q-5 12 -11 23.5t-19 11.5h-143l50 -89v-512l-1 -1q-11 -12 -19 -23.5t-8 -30.5q0 -11 5.5 -20.5
t19.5 -9.5h129q20 0 26 11.5t6 25.5q0 2 -0.5 4.5t-0.5 4.5v6l-6 6q-5 5 -11.5 13t-10.5 13v487q0 10 8 16.5t19 10t22 5t18 1.5q9 0 20 -3t19 -9v-507l-1 -1q-12 -12 -19.5 -23.5t-7.5 -30.5q0 -11 5 -20.5t19 -9.5h124q20 0 25.5 11.5t5.5 25.5q0 2 -0.5 4.5t-0.5 4.5v6
q-1 1 -4 5.5t-5 6.5q-5 5 -10 11t-9 10v486q0 10 8 16.5t19 10t22 5t18 1.5q14 0 30 -5t16 -22v-393l-91 -184h173q15 0 26.5 11t21.5 27t17.5 35t13.5 34q2 5 4.5 13t4.5 12q-4 2 -15 3t-14 1q-18 0 -28.5 -7t-18.5 -15q-8 -7 -17 -13.5t-27 -6.5h-8z" />
    <glyph glyph-name="FL006Eh" unicode="n" horiz-adv-x="487" 
d="M426 174l-75 -81h8q18 0 27 6.5t17 13.5q8 8 17.5 15t28.5 7q3 0 14 -1t17 -3q-2 -5 -6.5 -15t-6.5 -16q-6 -15 -13.5 -32.5t-17 -33t-21 -25.5t-25.5 -10h-136l56 185v392q0 8 -4.5 13.5t-11.5 8.5t-15 4t-15 1t-19 -1t-24 -4.5t-20.5 -10t-8.5 -16.5v-486q4 -4 9 -10
t10 -11q2 -2 5 -6.5t4 -5.5v-6q0 -2 0.5 -4.5t0.5 -4.5q0 -14 -5.5 -25.5t-25.5 -11.5h-123q-14 0 -19 9t-5 20q0 20 8 31.5t20 23.5v514q0 11 -6.5 18.5t-14.5 14.5h1q-10 10 -17.5 22t-7.5 32h136q12 0 18 -11.5t10 -22.5h-1l2 -4q9 11 24 24.5t30 13.5h107q10 0 22.5 -7
t24 -17.5t19.5 -22.5t8 -22v-442z" />
    <glyph glyph-name="o" unicode="o" horiz-adv-x="436" 
d="M186 573q0 -13 -6.5 -23.5t-14.5 -18.5q-5 -7 -9.5 -13.5t-4.5 -14.5v-372q0 -14 6 -23.5t15.5 -15t21.5 -8t23 -2.5q39 0 53 19.5t14 57.5v401q0 9 -11 18.5t-21 12.5h-22q-4 0 -7.5 0.5t-6.5 0.5h-9q-24 0 -44 -1.5t-40 -9.5q-3 -1 -10.5 -5.5t-16.5 -10.5h1
q-11 -8 -24 -16.5t-27 -8.5q-11 0 -14 5.5t-3 13.5v12q0 2 0.5 3.5t0.5 3.5q6 14 17 32.5t25 35.5t29.5 28.5t30.5 11.5h154q23 0 46 -12.5t42 -32.5t30.5 -44.5t11.5 -48.5v-366q0 -16 -7 -35t-16 -32v1q-20 -31 -41 -53t-45 -36.5t-53 -21t-65 -6.5h-25q-4 0 -8 0.5
t-9 0.5h-11q-14 3 -31.5 12.5t-32.5 23t-25.5 29.5t-10.5 33v399q5 11 24.5 24t42.5 25t44.5 21t30.5 13z" />
    <glyph glyph-name="FL0070h" unicode="p" horiz-adv-x="459" 
d="M82 523l-2 -2zM48 22q0 14 6 20.5t20 14.5v384q0 21 11.5 45.5t29.5 45t41 34t46 13.5q8 0 16.5 -4t8.5 -15q0 -10 -5.5 -16t-11.5 -11q-12 -9 -12 -19v-118l87 79q17 14 32.5 38t15.5 47q0 9 -5 20t-16 11h-134q-11 0 -25 -7.5t-27.5 -18.5t-25 -22.5t-18.5 -19.5
q-2 0 -6 -1q-15 0 -19 8.5t-7 17.5q0 1 -0.5 1.5t-0.5 2.5v-2q-2 5 -5 17t-6.5 26.5t-6.5 28t-4 20.5q-1 5 -1 10q0 15 6.5 24.5t24.5 9.5h272q22 0 43.5 -9.5t38.5 -25t27 -36.5t10 -44q0 -24 -7.5 -45t-19.5 -39.5t-27.5 -34.5t-30.5 -31l-160 -149v-211l28 -34q1 -3 1 -8
l-1 -2q-5 -7 -6.5 -9t-8.5 -8h-153q-11 0 -13 7t-2 12v3z" />
    <glyph glyph-name="FL0071h" unicode="q" horiz-adv-x="436" 
d="M153 131q0 -20 14 -31.5t32 -15.5v134l-46 62v-149zM153 297l57 23q3 -4 12 -12.5t19 -17.5q14 -14 30.5 -29.5t29.5 -27.5v320q0 5 -5.5 11t-13 12t-15.5 10.5t-13 6.5h1l-10 1h-41q-22 0 -40.5 -1.5t-37.5 -9.5q-7 -3 -25 -16q-17 -8 -29.5 -16t-23.5 -9q-12 0 -14 5
t-2 13v19q6 13 16 32t23 36t29 29t35 12h154q23 0 46 -13t42 -33t30.5 -44.5t11.5 -47.5v-368q0 -15 -7.5 -34.5t-15.5 -31.5q-19 -29 -37 -49t-39 -35v-47q0 -7 5.5 -10t12.5 -7q11 -6 20.5 -14.5t9.5 -32.5h-125q-5 0 -12 4.5t-14.5 11t-12.5 14t-5 12.5v37h-61
q-14 3 -31.5 12.5t-32.5 23t-25.5 29.5t-10.5 33v401q4 9 24 22.5t44 26t47 22t34 12.5q0 -19 -6 -30t-14 -20q-5 -7 -9.5 -13.5t-4.5 -14.5v-207z" />
    <glyph glyph-name="r" unicode="r" horiz-adv-x="495" 
d="M82 523l-2 -2zM48 22q0 14 6 20.5t21 14.5v384q0 21 11 45.5t29 45t41 34t46 13.5q9 0 17 -4t8 -15q0 -10 -5 -16t-11 -11q-5 -4 -9 -8.5t-4 -10.5v-118l88 79h-1q16 16 32.5 39t16.5 46q0 9 -5 20t-16 11h-134q-11 0 -25 -7.5t-27.5 -18.5t-25.5 -22.5t-19 -19.5
q-2 0 -5 -1q-16 0 -20 8.5t-7 17.5q0 1 -0.5 1.5t-0.5 2.5v-2q-2 5 -5 17t-6.5 26.5t-6.5 28t-4 20.5q-1 5 -1 10q0 15 6.5 24.5t24.5 9.5h273q23 0 44.5 -9.5t38 -25t26.5 -36.5t10 -44t-7 -42t-18.5 -35t-25.5 -30.5t-29 -27.5q9 -10 20.5 -23t21.5 -27t17 -29t7 -29v-264
q0 -6 5.5 -9.5t12.5 -7.5q11 -6 21 -14.5t10 -32.5h-126q-5 0 -12 5t-14.5 11.5t-12.5 13.5t-5 11v259q0 7 -4 17.5t-10 20t-13.5 16.5t-14.5 7q-6 -4 -11 -6l-57 -59v-235l28 -34q1 -3 1 -8l-1 -2q-5 -7 -7 -9l-8 -8h-154q-11 0 -13 7t-2 12v3z" />
    <glyph glyph-name="s" unicode="s" horiz-adv-x="452" 
d="M120 186q-12 0 -19.5 -9.5t-11.5 -22.5t-5.5 -25t-1.5 -18q-6 -18 -16 -32t-21 -27q-9 -11 -18 -23t-18 -29h318l90 133h-1q13 16 17 36t4 40v24q0 51 -16.5 83.5t-42 54t-57 34t-62.5 23.5q-21 7 -40.5 14.5t-34.5 17t-24 22.5t-9 32q0 16 8 31.5t20.5 26.5t28.5 18
t31 7q26 0 39.5 -15t23.5 -30q8 -12 15.5 -21t18.5 -9q3 0 9 0.5t10 2.5q2 5 5 11t8 14q14 24 27.5 53t13.5 58q0 2 -0.5 4t-0.5 4v8l-18 9h-179q-28 0 -56.5 -24t-51 -58t-36.5 -71.5t-14 -65.5q0 -40 14.5 -67.5t38 -46.5t52.5 -31.5t58 -23.5q23 -9 44 -17.5t37.5 -20
t26.5 -27t10 -37.5q0 -11 -7 -29t-17 -35.5t-21 -30t-20 -12.5h-66q-2 1 -4.5 1.5t0.5 -2.5q-11 8 -20.5 23t-19.5 30q-11 17 -21 31t-18 14z" />
    <glyph glyph-name="FL0074h" unicode="t" horiz-adv-x="451" 
d="M132 22v-3q0 -5 2 -12t13 -7h150q2 0 8 6t10 11l1 2v6t-1 3l-34 33l1 453q0 7 3.5 11t8.5 8q6 5 11 11t5 16q0 11 -7.5 15t-17.5 4q-23 0 -45.5 -13.5t-40.5 -34t-29.5 -45t-11.5 -45.5v-384q-14 -8 -20 -14.5t-6 -20.5zM57 686q-18 0 -24.5 -9.5t-6.5 -24.5q0 -5 1 -10
q1 -7 4 -20.5t6.5 -28t6.5 -26.5t5 -17v2q0 -2 0.5 -2.5t0.5 -1.5q3 -9 7 -17.5t19 -8.5q4 1 6 1q7 8 18.5 19.5t25 22.5t27.5 18.5t25 7.5h111q11 -1 25.5 -9.5t28.5 -20t25.5 -22.5t17.5 -18q-1 0 0.5 0.5t6.5 0.5q12 0 16.5 7.5t6.5 16.5q0 1 0.5 2.5t0.5 3.5q1 6 4 18.5
t6.5 26.5t7 26.5t5.5 18.5v10q0 15 -6.5 24.5t-24.5 9.5h-352zM80 521l2 2z" />
    <glyph glyph-name="u" unicode="u" horiz-adv-x="487" 
d="M76 511l75 81h-8q-17 0 -26.5 -7t-16.5 -14q-8 -8 -18.5 -15t-28.5 -7q-3 0 -14.5 2t-16.5 4q0 1 3 7l7 14t5 11q6 15 13 32t16.5 32t20.5 25t25 10h143l-63 -185v-392q0 -17 16.5 -22t30.5 -5q6 0 18.5 1.5t24.5 5.5t21 10.5t9 17.5v485q-8 5 -21 15.5t-15 18.5v5
q0 2 -0.5 3.5t-0.5 3.5q0 15 5.5 26.5t25.5 11.5h129q16 0 20.5 -10t4.5 -21q0 -19 -7.5 -30t-18.5 -22l-3 -3v-513q0 -11 6 -19t13 -15q10 -10 18 -21t8 -32h-136q-16 0 -20.5 11t-8.5 22q-1 1 -1 2t-1 2q-8 -11 -23.5 -24t-29.5 -13h-105q-11 0 -24 7t-24.5 17.5t-19 22.5
t-7.5 22v442z" />
    <glyph glyph-name="FL0076h" unicode="v" horiz-adv-x="421" 
d="M209 634q-3 -5 -13.5 -16t-17.5 -18l46 -263l61 263v-2q0 11 -6 18t-14 15h1q-10 10 -17.5 22t-7.5 32h136q16 0 24.5 -16t8.5 -37l-160 -616l-26 -15l-35 10l-134 588l-3 4q-11 11 -18.5 22t-7.5 30q0 11 4.5 21t20.5 10h127q20 0 25.5 -11.5t5.5 -26.5v-14z" />
    <glyph glyph-name="FL0077h" unicode="w" horiz-adv-x="720" 
d="M77 511v-442q0 -10 7.5 -22t19 -22.5t25 -17.5t24.5 -7h106q8 0 18.5 4.5t20.5 11t19 13.5t15 12q10 -14 25.5 -27.5t29.5 -13.5h101q14 0 28 13t23 24v-1l2 2q1 -2 1 -3l1 -2q4 -11 9.5 -22t19.5 -11h137q0 22 -8 33t-17 20q-8 7 -13.5 15t-5.5 19v513l1 1
q11 12 19 23.5t8 30.5q0 11 -5.5 21t-19.5 10h-129q-20 0 -26 -11.5t-6 -26.5q0 -2 0.5 -3.5t0.5 -3.5v-3q0 -1 0.5 -2t0.5 -2q5 -7 14 -18t14 -17v-484q0 -11 -8 -17t-19 -10t-22 -5t-18 -1q-11 0 -21.5 2t-18.5 9v507l1 1q11 12 19 23.5t8 30.5q0 11 -5 21t-19 10h-124
q-20 0 -25.5 -11.5t-5.5 -26.5q0 -2 0.5 -3.5t0.5 -3.5v-7q2 -5 11 -17t17 -18v-484q0 -11 -8 -17t-19 -10t-22 -5t-18 -1t-15 1t-15 4t-11.5 8.5t-4.5 13.5v392l91 185h-173q-14 0 -25 -10t-20.5 -25t-17 -32t-13.5 -32q-1 -3 -4.5 -11t-6.5 -14t-3 -7q4 -2 16 -4t15 -2
q18 0 28.5 7t18.5 15q8 7 17 14t27 7h8z" />
    <glyph glyph-name="FL0078h" unicode="x" horiz-adv-x="421" 
d="M170 631q9 9 17 21t8 33h-135q-16 0 -25 -15.5t-9 -36.5l122 -291l-122 -290q1 -24 8 -38t26 -14h135q0 22 -8 33t-17 20q-7 7 -13 14.5t-6 18.5l54 122l52 -125l-1 -2q-7 -7 -15 -14t-13 -20v-10q0 -15 5.5 -26.5t24.5 -11.5h127q16 0 20.5 9.5t4.5 20.5q0 20 -9 32
t-22 25l1 -3l-116 259l116 259l-1 -3l5 5q11 11 18.5 22t7.5 30q0 11 -4.5 21t-20.5 10h-127q-19 0 -24.5 -11.5t-5.5 -26.5v-12q2 -5 12 -16t17 -19l-52 -125l-54 122q0 11 6 19t13 14z" />
    <glyph glyph-name="FL0079h" unicode="y" horiz-adv-x="470" 
d="M150 236h-6q4 -9 4 -22q0 -16 -4 -31q-1 -4 -1 -10q0 -19 15 -33t35.5 -23.5t41.5 -14.5t32 -5q3 0 6 -0.5t7 -0.5h12q9 0 15.5 2.5t6.5 10.5v150q-3 5 -4.5 8l-2.5 5q-10 -11 -23.5 -23.5t-27.5 -12.5h-106zM76 511l75 81h-8q-17 0 -26.5 -7t-16.5 -14q-8 -8 -18.5 -15
t-28.5 -7q-3 0 -14.5 2t-16.5 4q0 1 3 7l7 14t5 11q6 15 13 32t16.5 32t20.5 25t25 10h171l-91 -185l-1 -156q0 -17 16 -22t30 -5q6 0 17.5 1t22.5 4.5t19 9.5t8 17v250q-4 3 -7.5 7.5t-6.5 8.5h1q-4 5 -8.5 11t-6.5 9v5q0 2 -0.5 3.5t-0.5 3.5q0 15 5.5 26.5t25.5 11.5h128
q16 0 20.5 -10t4.5 -21q0 -19 -8.5 -31t-20.5 -24q-1 -1 -1 -2v-529q0 -10 -8 -22t-19.5 -22.5t-24 -17.5t-22.5 -7h-106q-55 0 -89.5 11t-55 26t-30 30.5t-13.5 24.5v-1q-2 2 -2.5 4t0.5 1q-4 4 -4.5 13t-0.5 22q0 8 0.5 14.5t0.5 11.5v7q0 11 3.5 24.5t9.5 27t13.5 25.5
t16.5 18q-16 14 -23 44z" />
    <glyph glyph-name="FL00BAh" unicode="z" horiz-adv-x="468" 
d="M57 686q-18 0 -24.5 -9.5t-6.5 -24.5q0 -5 1 -10q1 -7 4 -20.5t6.5 -28t6.5 -26.5t5 -17v2q0 -2 0.5 -2.5t0.5 -1.5q3 -9 7 -17.5t19 -8.5q4 1 6 1q7 8 18.5 19.5t25.5 22.5t28 18.5t25 7.5h108l1 -1l-188 -413v-6q1 -12 9 -19.5t18.5 -13t21 -9.5t18.5 -10q12 0 18 -1
t9.5 -0.5t6 3.5t6.5 10q16 37 37 84t44 95t46 94.5t43.5 83.5t37.5 60t28 25q9 9 11.5 25.5t2.5 33.5q0 6 -0.5 11t-0.5 10v12q0 12 -10 16.5t-24 4.5h-365zM415 -1q18 0 24.5 9.5t6.5 24.5v3t-2 9q-2 4 -5 15.5t-6.5 25.5t-6 27t-3.5 19v-1q0 1 -0.5 2.5t-0.5 2.5
q-3 10 -6.5 18t-17.5 8h-2q-5 0 -5 1q-6 -7 -18 -18.5t-26 -23t-28 -19.5t-26 -8h-111q-11 1 -24.5 7.5t-26 14.5t-24 17.5t-17.5 16.5q-1 0 -2 0.5t-4 1.5q-24 0 -30 -18q-2 -5 -5 -18t-6.5 -27t-6.5 -27t-4 -19q-1 -5 -1 -10q0 -15 6.5 -24.5t24.5 -9.5h353zM80 521l2 2z
M90 150l-0.5 0.5t-1.5 2.5q0 -1 2 -3z" />
    <glyph glyph-name="FL007Bh" unicode="{" horiz-adv-x="409" 
d="M250 668q11 8 23.5 13t18.5 5h101q-3 -46 -11 -70.5t-12 -24.5h-94q-3 0 -7.5 -3.5t-8.5 -9t-7 -10.5t-3 -8v-406q0 -8 3 -21t8 -25.5t13 -21.5t18 -9h94v-15q5 0 5 -2q0 -1 -1 -4q-2 -8 -4 -17.5t-5.5 -18t-9 -14.5t-12.5 -6h-138q-15 0 -31.5 10.5t-29.5 26.5t-21.5 34
t-8.5 33v210l-25 -2q-6 -1 -10.5 -7t-8.5 -13q-5 -10 -11.5 -18.5t-19.5 -8.5q-5 0 -13 2.5t-12 11.5l1 149q0 23 5 31.5t13 8.5q10 0 19.5 -10.5t17.5 -21.5q7 -8 12 -14t7 -6h25v98q0 22 14 40.5t28 32.5v-1q4 5 10 12t9 11z" />
    <glyph glyph-name="FL007Ch" unicode="|" horiz-adv-x="162" 
d="M31 51q2 -2 3.5 -7t3.5 -10v1q2 -11 6 -20.5t15 -13.5q3 -2 14 -2h30q9 0 12 2q12 4 21.5 22t9.5 44v535q1 4 1 14t-2 22t-5 22.5t-7 18t-8 7.5h-63q-14 0 -22 -12t-8 -30z" />
    <glyph glyph-name="FL007Dh" unicode="}" horiz-adv-x="409" 
d="M236 605l-63 63q-11 8 -23 13t-20 5h-100q3 -46 11 -70.5t12 -24.5h94q3 0 7.5 -4t8.5 -9.5t7 -11.5t3 -9q1 -3 1 -8v-326q0 -19 -0.5 -32t-0.5 -21v-16q0 -8 -3 -21t-8 -25.5t-13.5 -21.5t-18.5 -9h-93v-15q-5 0 -5 -2q0 -1 1 -4q2 -8 4 -17.5t5.5 -18t8.5 -14.5t12 -6
h139q15 0 31 10.5t29 26.5t21.5 34t8.5 33v210l26 -2q6 -1 10.5 -7t8.5 -14q6 -10 13 -18t18 -8q5 0 13 2.5t12 11.5l-1 149q0 23 -5 31.5t-13 8.5q-11 0 -20.5 -11t-18.5 -23q-6 -7 -10.5 -12.5t-5.5 -5.5h-27v98q0 22 -13.5 40.5t-27.5 32.5v-1q-9 10 -15 18v1z" />
    <glyph glyph-name="FL007Eh" unicode="~" horiz-adv-x="355" 
d="M341 359q0 29 -9.5 36.5t-34.5 7.5q-11 0 -24 -12.5t-24 -26.5q-4 -5 -7.5 -9t-6.5 -7q-11 19 -23 29t-23 17q-5 4 -13 7t-16 3h-14q-8 0 -16 -0.5t-16 -3.5h1q-10 -3 -21.5 -12.5t-22 -21.5t-20.5 -25t-17 -24l-3 -7v-5q0 -24 14 -28t37 -4h7l58 52q11 -19 23 -28
t26 -17l32 -6h24t16 1q19 7 35.5 29t30.5 44q2 2 3 4z" />
    <glyph glyph-name="FL007Fh" horiz-adv-x="179" 
 />
    <glyph glyph-name="FL20ACh" unicode="&#x20ac;" horiz-adv-x="507" 
d="M57 339h78v-19l-78 1q-18 0 -24.5 -9t-6.5 -25q0 -5 1 -9q2 -13 7 -28.5t9 -26.5q2 -8 4 -12v-1q2 -10 6 -18t20 -8l5 2q1 0 3 2q7 6 21.5 14.5t32.5 14.5v-113q0 -15 8.5 -33t21.5 -34t29 -26.5t31 -10.5h140q23 0 46.5 14t42 35.5t30.5 47t12 48.5q0 16 -7 19.5
t-22 3.5q-20 0 -28.5 -14.5t-13.5 -34.5q-5 -15 -11.5 -28.5t-20.5 -13.5h-94q-11 0 -19 9t-13.5 21.5t-8 25.5t-2.5 21v16q0 7 -0.5 17.5t-0.5 25.5q14 -6 24.5 -13t17.5 -13q4 -4 12 -4q10 0 17 8.5t12 21.5t8.5 27t5.5 26v-1q1 3 1.5 7.5t-0.5 2.5q2 6 2 7v4
q0 16 -6.5 25t-24.5 9h-69v20h69q18 0 24.5 9t6.5 24v3t-2 9q2 -5 1 0l-2 10q-2 12 -5 26t-7.5 26.5t-12 21t-18.5 8.5h-7q-7 -8 -19.5 -16t-27.5 -13v89v11t1 11q0 3 2.5 8.5t6.5 10.5t8.5 9t8.5 4h94q2 0 9 -3.5t9 -5.5h-1l46 -47h40v151h-180q-8 0 -20.5 -5t-23.5 -13
l-75 -76q-15 -15 -30 -34.5t-15 -43.5v-71q-18 5 -33 13.5t-23 18.5q-2 0 -6 1q-16 0 -20 -8.5t-6 -17.5q0 -1 -0.5 -2.5t-0.5 -2.5q-5 -11 -11 -31t-8 -31q-1 -5 -1 -10q0 -15 6.5 -24.5t24.5 -9.5z" />
    <glyph glyph-name="FL201Ah" unicode="&#x201a;" horiz-adv-x="181" 
d="M167 19q0 -17 -13 -32.5t-31.5 -27.5t-40 -20t-38.5 -9q0 11 -1 11l-1 2q-1 1 -1 8q0 19 6.5 27t14.5 15q2 2 5.5 4.5t5.5 7.5q-21 7 -33.5 24t-12.5 40q0 31 20.5 50.5t49.5 19.5t49.5 -19.5t20.5 -50.5v-50z" />
    <glyph glyph-name="FL0192h" unicode="&#x192;" horiz-adv-x="381" 
d="M35 22v-3q0 -5 1.5 -12t12.5 -7h152l8 8t7 9l1 2v6q0 2 -1 4l-36 39q0 29 0.5 54.5t0.5 48.5v78v35q0 17 1 33q7 2 22 3t23 1h7h13h5q11 0 25 -0.5t24 -5.5q3 -1 6 -6.5t7 -11.5q6 -10 12.5 -18t18.5 -8h2q6 0 9 1.5t8 9.5l6 149v3q0 11 -4.5 25t-24.5 14l-49 -52h-109
v61l-1 3q0 14 8 32t20 36.5t25.5 37t25.5 33.5q13 17 21 29t8 18q0 8 -8.5 10.5t-19.5 2.5q-6 0 -11 -0.5t-9 -0.5h-7q-15 0 -34 -14t-38 -36.5t-38 -49.5t-33 -54t-23 -50.5t-9 -37.5v-384q-14 -8 -19.5 -14.5t-5.5 -20.5z" />
    <glyph glyph-name="FL201Eh" unicode="&#x201e;" horiz-adv-x="341" 
d="M174 20q0 -17 -13.5 -32.5t-33 -27.5t-42 -20t-40.5 -9q0 1 -0.5 4t-0.5 6v-1l-2 4t-1 8q0 18 7 25.5t15 14.5q7 5 11 13q-21 8 -34.5 25t-13.5 40q0 30 21.5 49.5t52.5 19.5q32 0 53 -19.5t22 -49.5zM329 19q0 -17 -13.5 -32.5t-33 -27.5t-42 -20t-40.5 -9q0 11 -1 11
t-2 2q-1 1 -1 8q0 19 6.5 27t15.5 15q3 2 6 4.5t6 7.5q-22 7 -35.5 24t-13.5 40q0 31 21.5 50.5t53.5 19.5t52.5 -19.5t21.5 -50.5z" />
    <glyph glyph-name="FL2026h" unicode="&#x2026;" horiz-adv-x="490" 
d="M26 66q0 29 22 48.5t54 19.5q29 0 49.5 -15.5t25.5 -40.5q5 25 25.5 40.5t49.5 15.5q32 0 54 -19.5t22 -48.5q0 29 21.5 48.5t53.5 19.5t54 -19.5t22 -48.5q0 -28 -22 -47t-54 -19q-31 0 -52.5 18.5t-22.5 44.5q-2 -26 -23.5 -44.5t-52.5 -18.5q-29 0 -49.5 16t-25.5 39
q-5 -23 -25.5 -39t-49.5 -16q-32 0 -54 19t-22 47z" />
    <glyph glyph-name="FL2020h" unicode="&#x2020;" horiz-adv-x="361" 
d="M319 388q18 0 24.5 9t6.5 24v3t-2 9q2 -6 1 -1l-2 10q-2 12 -5.5 26t-8.5 27t-12 21.5t-17 8.5h-6q-8 -8 -19.5 -16t-25.5 -14v105l1 1q11 12 18.5 23.5t7.5 30.5q0 11 -4.5 21t-18.5 10h-127q-20 0 -25.5 -11.5t-5.5 -26.5q0 -2 0.5 -3.5t0.5 -3.5v-6q1 -5 10.5 -17.5
t16.5 -18.5v-107q-16 5 -28.5 12t-18.5 15q-3 3 -4 3.5t-4 1.5q-15 0 -19 -8.5t-7 -18.5q0 -1 -0.5 -2t-0.5 -2q-2 -5 -5 -14t-5.5 -18t-4.5 -17.5t-3 -13.5t-1 -10q0 -15 6.5 -24t23.5 -9h71v-336q5 -8 6 -11t3 -8q4 -11 9 -21.5t17 -10.5h135q0 22 -8.5 33t-16.5 20
q-8 7 -13.5 15t-5.5 19v301h66z" />
    <glyph glyph-name="FL2021h" unicode="&#x2021;" horiz-adv-x="361" 
d="M319 314h-66v74h66q18 0 24.5 9t6.5 24v3t-2 9q2 -6 1 -1l-2 10q-2 12 -5.5 26t-8.5 27t-12 21.5t-17 8.5h-6q-8 -8 -19.5 -16t-25.5 -14v105l1 1q11 12 18.5 23.5t7.5 30.5q0 11 -4.5 21t-18.5 10h-127q-20 0 -25.5 -11.5t-5.5 -26.5q0 -2 0.5 -3.5t0.5 -3.5v-6
q1 -5 10.5 -17.5t16.5 -18.5v-107q-16 5 -28.5 12t-18.5 15q-3 3 -4 3.5t-4 1.5q-15 0 -19 -8.5t-7 -18.5q0 -1 -0.5 -2t-0.5 -2q-2 -5 -5 -14t-5.5 -18t-4.5 -17.5t-3 -13.5t-1 -10q0 -15 6.5 -24t23.5 -9h71v-73l-71 1q-17 0 -23.5 -9.5t-6.5 -25.5q0 -4 1 -9
q1 -7 3.5 -16.5t5.5 -19.5t5.5 -18t4.5 -12v-1q3 -9 6.5 -17.5t17.5 -8.5h2q5 0 8 3q6 6 18.5 13t28.5 14v-157q5 -8 6 -11t3 -8q4 -11 9 -21.5t17 -10.5h135q0 22 -8.5 33t-16.5 20q-8 7 -13.5 15t-5.5 19v118q29 -13 42 -26q4 -2 6 -2h3q11 0 18.5 8.5t12 20.5t7.5 26
t5 26v-1q1 3 1 7q0 5 0 3q2 8 2 9v3q0 16 -6.5 25.5t-24.5 9.5z" />
    <glyph glyph-name="FL02C6h" unicode="&#x2c6;" horiz-adv-x="289" 
d="M28 540q0 -30 11.5 -37t40.5 -7q11 0 20.5 9t20.5 20q8 10 16.5 17.5t15.5 7.5h1q2 0 8 -4.5t14 -12.5q11 -10 24.5 -20t27.5 -17q4 -2 11 -2q12 0 25.5 7.5t13.5 24.5q0 5 -0.5 9t-3.5 9v-1q-16 34 -40 54.5t-45 25.5q-3 1 -5.5 1.5t-7.5 0.5h-15q-12 0 -23.5 -0.5
t-19.5 -1.5q-24 -6 -46 -30t-39 -46z" />
    <glyph glyph-name="FL2030h" unicode="&#x2030;" horiz-adv-x="751" 
d="M455 601l-1 -1l2 2q13 13 21 24t8 29q0 11 -4.5 21t-20.5 10h-130q-20 0 -26 -11.5t-6 -26.5q0 -2 0.5 -3.5t0.5 -3.5v-5q2 -5 12.5 -16t18.5 -19l-94 -220q1 4 1 11v183q0 12 -6.5 25t-16.5 23.5t-22.5 17t-24.5 6.5h-79q-11 0 -20 -6t-15.5 -15t-12 -19t-8.5 -18v-9
q0 -13 12 -13h2q-11 -9 -11 -18v-199q0 -8 5.5 -17t14 -17t18 -13.5t17.5 -6.5h28q38 0 62 14.5t45 46.5h-1l2 2l-1 -2l-132 -307q3 -5 4 -8.5t3 -8.5q4 -11 8.5 -22t19.5 -11h144l-51 88l102 223v-2q0 -14 12 -14h1q-10 -10 -10 -17v-201q0 -8 5.5 -16.5t13.5 -16t18 -13.5
t18 -7h28q38 0 61 13.5t43 42.5q5 9 10 20.5t5 18.5v180q3 -5 11 -5h1q-11 -9 -11 -17v-201q0 -8 5.5 -16.5t14 -16t18 -13.5t18.5 -7h27q38 0 61.5 13.5t43.5 42.5q5 9 9.5 20.5t4.5 19.5v183q0 12 -6.5 25t-16.5 23.5t-22 17t-24 6.5h-79q-12 0 -21.5 -6t-16.5 -14.5
t-11.5 -18.5t-6.5 -17v-3v-1q-3 11 -10 22t-16.5 19.5t-20.5 14t-21 5.5h-80q-11 0 -20 -5t-16 -13l111 242zM645 315q4 -6 4 -12v-177q0 -17 -3 -26t-18 -9q-10 0 -13.5 4t-3.5 16v164q0 3 0.5 5.5t1.5 6.5q1 5 1.5 9.5t0.5 12.5l-6 6h36zM149 587q4 -2 5 -5.5t1 -5.5v-177
q0 -17 -3 -26t-18 -9q-10 0 -14 4t-4 17v162q0 4 0.5 7.5t1.5 8.5l3 18l-6 6h34zM410 315h32q4 -6 4 -12v-176q0 -17 -3 -26t-19 -9q-9 0 -12.5 4t-3.5 16v164q0 2 2 12q1 5 1.5 9.5t0.5 12.5l-5 5h3zM454 600v-1v1z" />
    <glyph glyph-name="FL0160h" unicode="&#x160;" horiz-adv-x="452" 
d="M120 187q-12 0 -19.5 -9.5t-11.5 -22.5t-5.5 -25t-1.5 -18q-8 -29 -29.5 -56t-49.5 -56h324l90 134h-1q13 16 17 36t4 40v24q0 51 -16.5 84t-42 54.5t-57 34t-62.5 23.5q-21 7 -40.5 14.5t-34.5 17t-24 22.5t-9 32q0 17 8 32t20.5 26.5t28.5 18.5t31 7q13 0 22.5 -4.5
t17 -11t13 -14.5t10.5 -15q8 -13 15.5 -22t18.5 -9q3 0 9 0.5t10 2.5q2 5 5 11.5t8 14.5q14 24 27.5 53t13.5 58q0 2 -0.5 4t-0.5 4v8l-18 9h-179q-28 0 -56.5 -24t-51 -58t-36.5 -72t-14 -66q0 -41 14.5 -68t38 -46t52.5 -32t58 -24q23 -9 44 -17.5t37.5 -20t26.5 -27
t10 -37.5q0 -11 -7 -29t-17 -35.5t-21 -30.5t-20 -13h-66h-1q-2 1 -4 1t1 -2q-11 8 -20.5 23.5t-19.5 29.5q-11 18 -21 32t-18 14zM361 805q0 33 -11.5 41t-41.5 8q-11 0 -21.5 -9.5t-20.5 -20.5q-8 -10 -16 -17.5t-16 -7.5h-1q-1 0 -7.5 5t-17.5 13q-12 9 -25.5 20
t-26.5 17q-4 2 -11 2q-13 0 -27 -8t-14 -27q0 -11 5 -20v1q16 -37 40.5 -60t46.5 -28q3 -1 5.5 -1.5t7.5 -0.5h16q12 0 24 0.5t20 1.5q12 3 24 12t23 21t20.5 25t18.5 25z" />
    <glyph glyph-name="FL2039h" unicode="&#x2039;" horiz-adv-x="167" 
d="M112 237q30 0 37.5 11t7.5 41q0 11 -9 20.5t-19 19.5q-9 8 -15.5 16t-6.5 15v1q0 2 15 22q8 12 18.5 27t16.5 26q1 4 1 11q0 12 -7.5 26t-24.5 14q-9 0 -18 -5h1q-33 -16 -54 -39.5t-26 -44.5q-1 -3 -1.5 -6t-0.5 -8v-15q0 -12 0.5 -23.5t1.5 -19.5q7 -25 30 -46t46 -38z
" />
    <glyph glyph-name="FL0152h" unicode="&#x152;" horiz-adv-x="700" 
d="M163 672l-68 -65l-6.5 -8t-11.5 -13v1q-14 -14 -27 -32.5t-13 -40.5v-410q0 -15 8.5 -33t22 -34t30 -26.5t31.5 -10.5h141q21 0 42 11.5t39 29.5q14 -18 31 -29.5t35 -11.5h140q23 0 46.5 14t42.5 35.5t31 47t12 48.5q0 16 -6.5 19.5t-21.5 3.5q-20 0 -28.5 -14.5
t-14.5 -34.5q-5 -15 -11.5 -28.5t-20.5 -13.5h-96q-11 0 -19 9t-13 21.5t-8 25.5t-3 21v5q0 4 -0.5 9.5t-0.5 13.5v61q0 14 0.5 31t0.5 40l20 16q-1 0 8.5 -4.5t20.5 -4.5h7q4 0 7.5 0.5t5.5 0.5q12 0 30 -1t29 -6q2 -1 5.5 -6.5t7.5 -11.5q6 -11 12 -19t19 -8h2q7 0 10 1.5
t7 9.5q0 8 0.5 30t2.5 46q1 23 2 44t1 29v3q0 12 -4 25.5t-21 13.5q-14 0 -20.5 -10t-11.5 -21q-4 -8 -8 -14.5t-10 -6.5h-116l-6 7v133q0 3 3 8t7 10.5t8.5 9t8.5 3.5h95q2 0 8.5 -3.5t8.5 -5.5h-1l48 -47h40v151h-183q-8 0 -20 -5t-23 -13l-62 -61v79h-183q-8 0 -19 -4
t-19 -10h-1zM298 77h-96q-11 0 -19 9t-13 21.5t-8 25.5t-3 21v16q0 8 -0.5 21t-0.5 32v314v11t1 11q0 3 3 8.5t7 10.5t8.5 9t8.5 4h95q2 0 8.5 -3.5t8.5 -5.5h-1l36 -37q-8 -14 -8 -31v-410q-5 -12 -10.5 -19.5t-16.5 -7.5z" />
    <glyph glyph-name="FL017Dh" unicode="&#x17d;" horiz-adv-x="468" 
d="M57 689q-18 0 -24.5 -9.5t-6.5 -24.5q0 -5 1 -10q1 -7 4 -20.5t6.5 -28t6.5 -27t5 -16.5v2q0 -2 0.5 -2.5t0.5 -1.5q3 -10 7 -18.5t19 -8.5q4 1 6 1q7 8 18.5 20t25.5 23t28 18.5t25 7.5h108l1 -1l-189 -420v-6q0 -17 10 -30t23 -18q16 -6 32 -6q12 0 18.5 0.5t10.5 2
t7 5.5t7 11q16 37 37 84t44 95.5t46 95t43.5 83.5t37.5 60t28 25q9 10 11.5 26.5t2.5 33.5q0 6 -0.5 11t-0.5 10v12q0 12 -10 16.5t-24 4.5h-365zM415 -1q18 0 24.5 9.5t6.5 24.5v3t-2 9q-2 4 -5 16l-6.5 26t-6 27t-3.5 19v-1q0 1 -0.5 2t-0.5 2q-3 10 -6.5 18.5t-17.5 8.5
h-2q-5 0 -5 1q-6 -8 -18 -19.5t-26 -23t-28 -19.5t-26 -8h-111q-11 1 -24.5 7.5t-26 15t-24 18t-17.5 16.5q-1 0 -2 0.5t-4 1.5q-24 0 -30 -19q-2 -5 -5 -17.5t-6.5 -27t-6.5 -27.5t-4 -19q-1 -5 -1 -10q0 -15 6.5 -24.5t24.5 -9.5h353zM377 803q0 33 -11 41t-42 8
q-11 0 -21.5 -9.5t-19.5 -20.5q-9 -10 -16.5 -17.5t-15.5 -7.5h-1q-1 0 -8 5t-17 13q-13 9 -26.5 20t-25.5 17q-4 2 -12 2q-12 0 -26 -8t-14 -27q0 -11 5 -20v1q16 -37 40 -60t46 -28q3 -1 6 -1.5t8 -0.5h15q13 0 25 0.5t20 1.5q12 4 23.5 13t22.5 20.5t20.5 24.5t18.5 25z
M80 523l2 2zM90 151l-0.5 0.5t-1.5 2.5q0 -1 2 -3z" />
    <glyph glyph-name="FL2018h" unicode="&#x2018;" horiz-adv-x="181" 
d="M27 562q0 15 12.5 30.5t31.5 28.5t40 21.5t38 9.5v-12v2l2 -4t1 -7q0 -17 -6.5 -25.5t-13.5 -16.5q-3 -2 -6.5 -4.5t-5.5 -6.5q20 -8 33.5 -25t13.5 -40q0 -31 -20.5 -50t-49.5 -19t-49.5 19t-20.5 50v49z" />
    <glyph glyph-name="FL2019h" unicode="&#x2019;" horiz-adv-x="181" 
d="M167 533q0 -16 -13 -31.5t-31.5 -28t-40 -21t-38.5 -9.5q0 11 -1 11l-1 2q-1 1 -1 7q0 19 6.5 27.5t14.5 14.5q2 2 5.5 5t5.5 6q-21 8 -33.5 25t-12.5 40q0 31 20.5 51t49.5 20t49.5 -20t20.5 -51v-48z" />
    <glyph glyph-name="FL201Ch" unicode="&#x201c;" horiz-adv-x="338" 
d="M30 562q0 15 13.5 30.5t33 28.5t42 21.5t40.5 9.5v-4t1 -6v1q1 -2 1.5 -4t0.5 -8q0 -17 -6.5 -25.5t-14.5 -16.5q-3 -2 -6.5 -4.5t-6.5 -6.5q17 -5 29 -17t17 -27l1 28q0 15 13.5 30.5t33 28.5t42 21.5t40.5 9.5v-4t1 -6v1l2 -4t1 -8q0 -17 -7 -25.5t-15 -16.5
q-3 -2 -6.5 -4.5t-6.5 -6.5q22 -8 36 -25t14 -40q0 -31 -21.5 -50t-53.5 -19q-27 0 -47 14.5t-25 38.5q-6 -24 -26 -38.5t-46 -14.5q-32 0 -53 19t-22 50z" />
    <glyph glyph-name="FL201Dh" unicode="&#x201d;" horiz-adv-x="338" 
d="M323 533q0 -16 -13.5 -31.5t-33 -28t-42 -21t-40.5 -9.5q0 11 -1 11t-2 2q-1 1 -1 7q0 19 6.5 27.5t15.5 14.5q3 2 6 5l6 6q-17 6 -29 17t-17 27v-27q0 -16 -13.5 -31.5t-33 -28t-42 -21t-40.5 -9.5q0 11 -1 11t-2 2q-1 1 -1 7q0 19 6.5 27.5t15.5 14.5q2 2 5.5 5t6.5 6
q-22 8 -35.5 25t-13.5 40q0 31 21.5 51t52.5 20q28 0 47.5 -15t25.5 -40q5 25 25.5 40t46.5 15q31 0 52.5 -20t22.5 -51z" />
    <glyph glyph-name="FL2022h" unicode="&#x2022;" horiz-adv-x="211" 
d="M30 402v-273q0 -9 3.5 -20.5t10 -22.5t15.5 -18.5t20 -7.5h63q11 0 21 8t17.5 19.5t12 24.5t4.5 23v265q0 4 -3 11t-8 13.5t-11 11t-12 4.5h-69l-48 -3l-4 -10v1q-2 -5 -6 -11.5t1 -6.5z" />
    <glyph glyph-name="FL002Dh" unicode="&#x2013;" horiz-adv-x="361" 
d="M76 254l1 1zM319 378q18 0 24.5 -8t6.5 -22v-4q0 -1 -2 -7q1 2 0.5 -2t-1.5 -7v1q-2 -11 -5.5 -24t-8.5 -24t-12 -19t-17 -8q-8 0 -11 3q-6 6 -16.5 11.5t-24 10.5t-27 8.5t-25.5 5.5h-23q-12 0 -27 -3.5t-29 -9t-25.5 -12.5t-18.5 -13q-1 0 -5 -1q-15 0 -19 8t-7 16v1
q-3 5 -4 11q-4 10 -8.5 24t-6.5 26q-1 4 -1 8q0 14 6.5 22.5t23.5 8.5z" />
    <glyph glyph-name="FL2014h" unicode="&#x2014;" horiz-adv-x="435" 
d="M76 253l2 2zM393 378q18 0 24.5 -8t6.5 -22v-10q0 1 -0.5 -3t-1.5 -6q-2 -11 -5.5 -24t-9 -24t-13 -19t-18.5 -8q-5 2 -6 2t-3 2q-6 6 -16.5 11.5t-24 10.5t-27.5 8t-26 5l-95 -1q-12 0 -27 -3.5t-29 -8.5t-26 -12t-18 -13q-2 0 -6 -1q-15 0 -19 8t-7 16v1q-3 5 -4 11
q-3 10 -8 24t-7 25q-1 5 -1 9q0 14 6.5 22t24.5 8h336z" />
    <glyph glyph-name="FL02DCh" unicode="&#x2dc;" horiz-adv-x="431" 
d="M178 583q-13 0 -36.5 -7t-47 -18.5t-41 -26.5t-17.5 -31v-402q0 -17 10.5 -33t25.5 -29.5t32.5 -23t31.5 -12.5h43l9 -1q37 0 66 7t53 21t45 36.5t41 53.5v-1q8 13 15.5 32t7.5 35v368q0 24 -11.5 48.5t-30.5 44.5t-42 32.5t-46 12.5h-154q-15 0 -30.5 -11.5t-29.5 -28.5
t-25 -36t-17 -33l-1 -17q0 -9 3 -14.5t14 -5.5q14 0 27 8t24 16h-1l16.5 11t10.5 6q20 8 40 9.5t44 1.5h46q10 -5 20.5 -14.5t10.5 -17.5v-403q0 -38 -14 -58t-53 -20q-11 0 -23 2.5t-21.5 8.5t-15.5 15.5t-6 23.5v374q0 7 4.5 13.5t9.5 13.5q8 9 14.5 19.5t6.5 22.5z
M376 811q0 32 -9.5 40t-34.5 8q-12 0 -25 -13.5t-24 -28.5q-4 -5 -7.5 -10t-6.5 -8q-11 20 -23.5 31t-23.5 19q-5 5 -13 8t-16 3h-14q-8 0 -16 -0.5t-16 -3.5h1q-11 -3 -22 -13.5t-22 -24t-21 -27.5t-17 -26l-3 -8v-6q0 -26 14 -30.5t37 -4.5h7l59 58q11 -21 23.5 -31.5
t26.5 -18.5l32 -7q13 0 24 0.5t17 1.5q9 3 18 11.5t17.5 19.5t16 23.5t14.5 24.5q1 2 1.5 2.5t1.5 2.5z" />
    <glyph glyph-name="FL0193h" unicode="&#x2122;" horiz-adv-x="816" 
d="M519 225l-2 -3h3zM219 333q20 5 21 7.5t-12 4.5zM322 216q0 4 -2 6q-2 11 -9 11q-8 0 -17 -26v-5q0 -16 7 -16q5 0 16 7q5 13 5 23zM685 267l-14 -85l-28 4l4 92zM267 235q-1 0 -6 0.5t-6 0.5l-3 1q-7 0 -18 -11h1q-12 -17 -12 -36q0 -10 11 -10q5 0 10 1.5t14 9.5l2 -38
q-17 -7 -26 -7q-29 0 -39 36l-1 -20l-36 -14l9 119l31 6l-2 -39q17 32 75 41zM556 154l-25 10q-8 21 -15 21q-5 0 -17 -23h-32v3l-35 -12v2q-28 0 -52 30v-27l-29 -9l-1 51q-12 -45 -37 -45q-2 0 -3.5 -0.5t-2.5 -0.5h2q-3 -1 -10 -1q-31 0 -37 21q0 70 39 96q-2 0 -2 1h11
q28 0 39 -23v33l51 -64l2 56l31 -8v-101l11 105l32 9l-5 -87q11 44 34 80q3 6 19 6q22 0 30 -36zM757 230l-90 51l61 20l-123 29l36 29h-121l9 37l-123 -21l-6 39h-1l-91 -51l-38 32l-42 -50q-5 0 -10.5 0.5t-13.5 0.5v-16q-18 0 -42 18l-8 -73l-62 6l2 -10l42 -59l-53 -5
l74 -44l-48 -25l112 -29l-34 -29l127 -4l-14 -35l116 24l20 -28l-2 -8l87 49l41 -33l47 67l62 -23l1 65l-19 -21l-22 23l2 2q-24 0 -49 33v-33l-28 -2l-2 127l50 -63l4 58l30 -11v-107l15 14l20 -10v2l67 -12q-2 8 -14 25t-33 46zM794 227v-1l-13 -27h-35l22 -32l-1 2
q3 -3 3 -12v-4q0 -25 -23 -33l-42 9l-5 -56q-8 -19 -26 -19q-12 0 -23 4.5t-27 14.5l-45 -59l-32 -6l-28 33l-91 -54l-23 7v31l-119 -19l-21 12l3 26l-125 12v31l9 10l-67 13q-20 2 -20 33l23 22l-47 26l-6 39l49 9l-25 33l7 44l58 -8q0 79 29 79h4l50 -21q17 27 31.5 42.5
t31.5 22.5l43 -33l90 51l27 -25l-4 -14l94 20l43 -5l-5 -34h112l17 -15q0 -21 -9 -33l86 -25v-13q0 -26 -21 -33q52 -25 52 -41z" />
    <glyph glyph-name="FL0161h" unicode="&#x161;" horiz-adv-x="452" 
d="M120 187q-12 0 -19.5 -9.5t-11.5 -22.5t-5.5 -25t-1.5 -18q-8 -29 -29.5 -56t-49.5 -56h324l90 134h-1q13 16 17 36t4 40v24q0 51 -16.5 84t-42 54.5t-57 34t-62.5 23.5q-21 7 -40.5 14.5t-34.5 17t-24 22.5t-9 32q0 17 8 32t20.5 26.5t28.5 18.5t31 7q13 0 22.5 -4.5
t17 -11t13 -14.5t10.5 -15q8 -13 15.5 -22t18.5 -9q3 0 9 0.5t10 2.5q2 5 5 11.5t8 14.5q14 24 27.5 53t13.5 58q0 2 -0.5 4t-0.5 4v8l-18 9h-179q-28 0 -56.5 -24t-51 -58t-36.5 -72t-14 -66q0 -41 14.5 -68t38 -46t52.5 -32t58 -24q23 -9 44 -17.5t37.5 -20t26.5 -27
t10 -37.5q0 -11 -7 -29t-17 -35.5t-21 -30.5t-20 -13h-66h-1q-2 1 -4 1t1 -2q-11 8 -20.5 23.5t-19.5 29.5q-11 18 -21 32t-18 14zM361 805q0 33 -11.5 41t-41.5 8q-11 0 -21.5 -9.5t-20.5 -20.5q-8 -10 -16 -17.5t-16 -7.5h-1q-1 0 -7.5 5t-17.5 13q-12 9 -25.5 20
t-26.5 17q-4 2 -11 2q-13 0 -27 -8t-14 -27q0 -11 5 -20v1q16 -37 40.5 -60t46.5 -28q3 -1 5.5 -1.5t7.5 -0.5h16q12 0 24 0.5t20 1.5q12 3 24 12t23 21t20.5 25t18.5 25z" />
    <glyph glyph-name="FL203Ah" unicode="&#x203a;" horiz-adv-x="167" 
d="M74 237q-30 0 -37 11t-7 41q0 11 8.5 20.5t19.5 19.5q8 8 15 16t7 15v1q0 2 -15 22q-9 12 -19 27t-16 26q-2 4 -2 11q0 12 7.5 26t24.5 14q9 0 18 -5h-1q34 -16 55 -39.5t26 -44.5q0 -3 0.5 -6t0.5 -8v-15q0 -12 -0.5 -23.5t-0.5 -19.5q-7 -24 -31 -45.5t-46 -38.5z" />
    <glyph glyph-name="FL0153h" unicode="&#x153;" horiz-adv-x="700" 
d="M163 672l-68 -65l-6.5 -8t-11.5 -13v1q-14 -14 -27 -32.5t-13 -40.5v-410q0 -15 8.5 -33t22 -34t30 -26.5t31.5 -10.5h141q21 0 42 11.5t39 29.5q14 -18 31 -29.5t35 -11.5h140q23 0 46.5 14t42.5 35.5t31 47t12 48.5q0 16 -6.5 19.5t-21.5 3.5q-20 0 -28.5 -14.5
t-14.5 -34.5q-5 -15 -11.5 -28.5t-20.5 -13.5h-96q-11 0 -19 9t-13 21.5t-8 25.5t-3 21v5q0 4 -0.5 9.5t-0.5 13.5v61q0 14 0.5 31t0.5 40l20 16q-1 0 8.5 -4.5t20.5 -4.5h7q4 0 7.5 0.5t5.5 0.5q12 0 30 -1t29 -6q2 -1 5.5 -6.5t7.5 -11.5q6 -11 12 -19t19 -8h2q7 0 10 1.5
t7 9.5q0 8 0.5 30t2.5 46q1 23 2 44t1 29v3q0 12 -4 25.5t-21 13.5q-14 0 -20.5 -10t-11.5 -21q-4 -8 -8 -14.5t-10 -6.5h-116l-6 7v133q0 3 3 8t7 10.5t8.5 9t8.5 3.5h95q2 0 8.5 -3.5t8.5 -5.5h-1l48 -47h40v151h-183q-8 0 -20 -5t-23 -13l-62 -61v79h-183q-8 0 -19 -4
t-19 -10h-1zM298 77h-96q-11 0 -19 9t-13 21.5t-8 25.5t-3 21v16q0 8 -0.5 21t-0.5 32v314v11t1 11q0 3 3 8.5t7 10.5t8.5 9t8.5 4h95q2 0 8.5 -3.5t8.5 -5.5h-1l36 -37q-8 -14 -8 -31v-410q-5 -12 -10.5 -19.5t-16.5 -7.5z" />
    <glyph glyph-name="FL017Eh" unicode="&#x17e;" horiz-adv-x="468" 
d="M57 689q-18 0 -24.5 -9.5t-6.5 -24.5q0 -5 1 -10q1 -7 4 -20.5t6.5 -28t6.5 -27t5 -16.5v2q0 -2 0.5 -2.5t0.5 -1.5q3 -10 7 -18.5t19 -8.5q4 1 6 1q7 8 18.5 20t25.5 23t28 18.5t25 7.5h108l1 -1l-189 -420v-6q0 -17 10 -30t23 -18q16 -6 32 -6q12 0 18.5 0.5t10.5 2
t7 5.5t7 11q16 37 37 84t44 95.5t46 95t43.5 83.5t37.5 60t28 25q9 10 11.5 26.5t2.5 33.5q0 6 -0.5 11t-0.5 10v12q0 12 -10 16.5t-24 4.5h-365zM415 -1q18 0 24.5 9.5t6.5 24.5v3t-2 9q-2 4 -5 16l-6.5 26t-6 27t-3.5 19v-1q0 1 -0.5 2t-0.5 2q-3 10 -6.5 18.5t-17.5 8.5
h-2q-5 0 -5 1q-6 -8 -18 -19.5t-26 -23t-28 -19.5t-26 -8h-111q-11 1 -24.5 7.5t-26 15t-24 18t-17.5 16.5q-1 0 -2 0.5t-4 1.5q-24 0 -30 -19q-2 -5 -5 -17.5t-6.5 -27t-6.5 -27.5t-4 -19q-1 -5 -1 -10q0 -15 6.5 -24.5t24.5 -9.5h353zM377 803q0 33 -11 41t-42 8
q-11 0 -21.5 -9.5t-19.5 -20.5q-9 -10 -16.5 -17.5t-15.5 -7.5h-1q-1 0 -8 5t-17 13q-13 9 -26.5 20t-25.5 17q-4 2 -12 2q-12 0 -26 -8t-14 -27q0 -11 5 -20v1q16 -37 40 -60t46 -28q3 -1 6 -1.5t8 -0.5h15q13 0 25 0.5t20 1.5q12 4 23.5 13t22.5 20.5t20.5 24.5t18.5 25z
M80 523l2 2zM90 151l-0.5 0.5t-1.5 2.5q0 -1 2 -3z" />
    <glyph glyph-name="FL0178h" unicode="&#x178;" horiz-adv-x="470" 
d="M95 790q0 33 21.5 54t54.5 21q31 0 53 -21t22 -54q0 -30 -22 -51t-53 -21q-33 0 -54.5 21t-21.5 51zM266 789q0 33 22 54t54 21t54 -21t22 -54q0 -30 -22 -51t-54 -21t-54 21t-22 51zM150 237h-6q4 -9 4 -22q0 -16 -4 -31q-1 -4 -1 -10q0 -19 15 -33.5t35.5 -24
t41.5 -14.5t32 -5q3 0 6 -0.5t7 -0.5h12q9 0 15.5 2.5t6.5 11.5v150q-3 5 -4.5 8l-2.5 5q-10 -11 -23.5 -23.5t-27.5 -12.5h-106zM76 514l75 81h-8q-17 0 -26.5 -7t-16.5 -15q-8 -8 -18.5 -14.5t-28.5 -6.5q-3 0 -14.5 2t-16.5 4q0 1 3 7l7 14t5 11q6 15 13 32t16.5 32
t20.5 25t25 10h171l-91 -185l-1 -157q0 -18 16 -23t30 -5q6 0 17.5 1t22.5 4.5t19 10t8 16.5v252q-4 3 -7.5 7.5t-6.5 8.5h1q-4 5 -8.5 11t-6.5 9v5q0 2 -0.5 3.5t-0.5 3.5q0 16 5.5 27t25.5 11h128q16 0 20.5 -10t4.5 -21q0 -19 -8.5 -31t-20.5 -24q-1 -1 -1 -2v-531
q0 -10 -8 -22.5t-19.5 -23t-24 -17.5t-22.5 -7h-106q-55 0 -89.5 11.5t-55 26.5t-30 30.5t-13.5 23.5v-1q-2 2 -2.5 4t0.5 1q-4 4 -4.5 13.5t-0.5 22.5q0 7 0.5 14t0.5 12v7q0 11 3.5 24.5t9.5 27t13.5 25.5t16.5 18q-15 14 -23 44z" />
    <glyph glyph-name="FL00A1h" unicode="&#xa1;" horiz-adv-x="176" 
d="M165 613q0 -30 -20.5 -52t-49.5 -22q-31 0 -51 22t-20 52q0 32 20 52.5t51 20.5q29 0 49.5 -20.5t20.5 -52.5zM152 41q0 -18 -7 -29.5t-24 -11.5h-63q-4 0 -8 7t-7.5 17.5t-6 23t-2.5 22.5t1 13l-1 365q0 23 9 41t21 23q3 3 16 3h30q10 0 13 -2q8 -3 12.5 -13t8.5 -20
q2 -5 4 -9l4 -8v-422z" />
    <glyph glyph-name="FL00A2h" unicode="&#xa2;" horiz-adv-x="395" 
d="M189 53l2.5 -12.5t4 -15t6.5 -14t10 -9.5q2 -2 11 -2h25q9 0 12 2q10 3 18 21.5t8 44.5v14q18 8 36 23t31.5 34t22 39.5t8.5 40.5q0 16 -7.5 19.5t-21.5 3.5q-20 0 -28 -14.5t-14 -34.5q-5 -14 -10.5 -26.5t-16.5 -15.5v356l44 -44h39v151h-88q0 11 -1 23.5t-3 23.5
t-4.5 18t-6.5 7h-50q-15 0 -18.5 -10.5t-4.5 -28.5l-2 -33q-8 0 -20 -4t-19 -10q-19 -20 -35 -35.5t-30 -28.5q-31 -29 -46 -46.5t-15 -38.5v-273q0 -15 8.5 -33t21.5 -33.5t29 -26.5t31 -11h73v-21zM147 229v15q0 8 -0.5 21.5t-0.5 31.5v115v21q0 10 1 21q1 8 1.5 15.5
t0.5 18.5q0 7 9 19t15 12h18v-368h-2q-11 0 -19 9t-13 21.5t-7.5 26t-2.5 21.5z" />
    <glyph glyph-name="FL00A3h" unicode="&#xa3;" horiz-adv-x="514" 
d="M279 668q10 8 22.5 13t19.5 5h54q7 0 8 -1t1 -8q0 -4 -6 -17.5t-13 -28.5t-13 -27l-6 -12l-41 -1q-4 0 -8.5 -3.5t-8.5 -9t-6.5 -10.5t-2.5 -8v-133l6 -7l45 -2q6 0 10 6.5t7 14.5q5 11 12 21t20 10q17 0 21.5 -13.5t4.5 -25.5v-3q0 -8 -1 -29t-2 -44q-2 -24 -2.5 -46
t-0.5 -30q-5 -8 -8 -9.5t-10 -1.5h-2q-12 0 -18.5 8t-12.5 19q-3 6 -6 11.5t-8 6.5q-8 4 -9 5q-2 1 -5 1h-8q-3 0 -6.5 -0.5t-7.5 -0.5h-7h-6v2l-6 -6q0 -23 -0.5 -40t-0.5 -31v-61q0 -8 0.5 -13.5t0.5 -9.5v-9q0 -8 0.5 -20.5t2.5 -24t6.5 -20t13.5 -8.5h95q14 0 20.5 13.5
t11.5 28.5q5 20 13.5 34.5t28.5 14.5q16 0 22 -3.5t6 -19.5q0 -23 -11.5 -48.5t-30.5 -47t-42 -35.5t-46 -14h-40l-4 -1h-269q-18 0 -24.5 9.5t-6.5 24.5q0 5 1 10v-1q1 6 3.5 15t5.5 18.5t6 18t5 13.5h-1l1 3l3 6v1q2 8 5 13.5t16 5.5q5 0 9 -1q9 -12 32.5 -23t46.5 -16
q-1 2 -0.5 4t0.5 4v207l-38 4q-6 -2 -9.5 -8t-7.5 -12q-6 -11 -12.5 -19t-18.5 -8q-7 0 -14.5 2.5t-10.5 11.5v149q0 23 4.5 31.5t13.5 8.5q10 0 20 -11l20 -22l16 -20l37 -2v98q0 22 13.5 40.5t27.5 32.5v-1q5 5 11 12t9 11z" />
    <glyph glyph-name="FL00A4h" unicode="&#xa4;" horiz-adv-x="421" 
d="M178 537l6 -12l-5 -372q5 -2 11 -2.5t13 -0.5q8 0 14.5 0.5t11.5 4.5l2 379q-2 1 -2.5 1.5t-2.5 1.5h-45h-3zM195 685q0 -21 -8 -33.5t-18 -21.5q-10 -8 -15 -17h93q-15 15 -19 23v12q0 15 5.5 26.5t24.5 11.5h127q16 0 20.5 -10t4.5 -21q0 -19 -7.5 -30t-18.5 -22l-5 -5
l1 3l-40 -89q1 -2 1 -7v-281q0 -8 -2.5 -17t-6.5 -17l48 -107l-1 3q13 -13 22 -25t9 -32q0 -11 -4.5 -20.5t-20.5 -9.5h-127q-19 0 -24.5 11.5t-5.5 26.5v10q5 13 13 20t15 14l1 2l-5 13q-27 -14 -67 -14h-19q-3 0 -5 0.5t-5 0.5h-5q1 -10 6.5 -17t12.5 -13q9 -9 17 -20
t8 -33h-135q-19 0 -26 14t-8 38l51 119v295q0 12 9 23l-3 8q-8 1 -9.5 6.5t-1.5 12.5v6l-46 111q0 21 9 36.5t25 15.5h135z" />
    <glyph glyph-name="FL00A5h" unicode="&#xa5;" horiz-adv-x="591" 
d="M151 236h-6q4 -9 4 -22q0 -16 -4 -31q-1 -4 -1 -10q0 -19 15.5 -33t36 -23.5t41.5 -14.5t32 -5q3 0 6 -0.5t7 -0.5h13q8 0 14.5 2.5t6.5 10.5v150q-3 5 -4.5 8l-2.5 5q-9 -11 -23 -23.5t-28 -12.5h-107zM433 383v-19h120q16 0 20.5 -9t4.5 -24q0 -5 -1 -9q-1 -7 -3 -20
q-1 -12 -3 -24.5t-5.5 -23.5t-9.5 -18t-15 -7q-8 0 -10 5q-9 13 -30 24t-39 14h-17q-6 0 -12 -2v-201q0 -10 -8 -22t-19.5 -22.5t-24.5 -17.5t-23 -7h-107q-55 0 -90 11t-56 26t-30.5 30.5t-13.5 24.5v-1q-2 2 -2.5 4t0.5 1q-3 4 -3.5 13t-0.5 22q0 8 0.5 14.5t0.5 11.5v7
q0 11 3.5 24.5t9.5 27t13.5 25.5t15.5 18q-15 15 -22 44l1 208l75 81h-8q-17 0 -26.5 -7t-17.5 -14q-8 -8 -18 -15t-28 -7q-3 0 -15 2t-17 4q0 1 3 7l7 14t5 11q6 15 13.5 32t17 32t20.5 25t25 10h172l-91 -185l-1 -156q0 -17 16 -22t30 -5q6 0 17.5 1t22.5 4.5t19 9.5t8 17
v250q-4 3 -7 7.5t-6 8.5h1q-5 5 -9.5 11t-6.5 9v5q0 2 -0.5 3.5t-0.5 3.5q0 15 5.5 26.5t25.5 11.5h129q17 0 21.5 -10t4.5 -21q0 -19 -9 -31t-20 -24q-1 -1 -1 -2v-121q2 -1 5 -1h7h17q18 2 39.5 13.5t29.5 23.5q2 5 10 5q9 0 14.5 -7t9.5 -17.5t5.5 -23.5t3.5 -24
q2 -13 3 -20q1 -5 1 -10q0 -15 -4.5 -23.5t-20.5 -8.5z" />
    <glyph glyph-name="FL00A6h" unicode="&#xa6;" horiz-adv-x="162" 
d="M31 51q2 -2 3.5 -7t3.5 -10v1q2 -11 6 -20.5t15 -13.5q3 -2 14 -2h30q9 0 12 2q12 4 21.5 22t9.5 44v535q1 4 1 14t-2 22t-5 22.5t-7 18t-8 7.5h-63q-14 0 -22 -12t-8 -30z" />
    <glyph glyph-name="FL00A7h" unicode="&#xa7;" horiz-adv-x="421" 
d="M178 536l6 -11l-5 -372q5 -2 11 -2.5t13 -0.5q8 0 14.5 0.5t11.5 4.5l2 379q-4 2 -5 2h-45h-3zM141 613h106q-15 15 -19 23v12q0 15 5.5 26.5t24.5 11.5h127q16 0 20.5 -10t4.5 -21q0 -19 -7.5 -30t-18.5 -22l-5 -5l1 3l-40 -89q1 -2 1 -7v-281q0 -4 -1 -12.5t-3 -18
t-4 -18t-4 -13.5l-70 -62q-29 -18 -74 -18h-19q-3 0 -5 0.5t-5 0.5h-5q1 -10 6.5 -17t12.5 -13q9 -9 17 -20t8 -33h-135q-19 0 -26 14t-8 38l51 119v295q0 3 5 23t12 43.5t13.5 43.5t8.5 23z" />
    <glyph glyph-name="FL00A8h" unicode="&#xa8;" horiz-adv-x="365" 
d="M29 560q0 29 21.5 48.5t53.5 19.5q31 0 52.5 -19.5t21.5 -48.5q0 -28 -21.5 -47t-52.5 -19q-32 0 -53.5 19t-21.5 47zM198 559q0 29 22 48.5t53 19.5q32 0 53.5 -19.5t21.5 -48.5q0 -28 -21.5 -47t-53.5 -19q-31 0 -53 19t-22 47z" />
    <glyph glyph-name="copyright" unicode="&#xa9;" horiz-adv-x="267" 
d="M201 541q-13 -50 -60 -50q-28 0 -44.5 16t-16.5 50q0 35 17 50t46 15q43 0 55 -46l-29 -6q-9 22 -27 22q-28 0 -28 -36q0 -17 7.5 -26t18.5 -9q23 0 29 28zM137 635q-15 0 -28 -6.5t-23.5 -17.5t-16.5 -25t-6 -29q0 -33 22.5 -55.5t55.5 -22.5q21 0 39 10t29 29t11 39
t-11 39q-10 20 -30 29q-17 10 -38 10h-4zM141 668q28 0 54 -15h-1q29 -13 43 -41q8 -13 11.5 -27t3.5 -28q0 -30 -15 -55q-15 -27 -41 -41q-26 -15 -55 -15q-14 0 -28 3.5t-27 11.5t-23 17t-18 24q-7 13 -11 26.5t-4 28.5q0 27 16 55q8 13 17 23.5t25 17.5h-1q25 15 54 15z
" />
    <glyph glyph-name="FL00AAh" unicode="&#xaa;" horiz-adv-x="253" 
d="M47 648v-218l27 -33q-5 1 -7 3.5t-4 4.5v-1q-4 5 -8.5 9t-15.5 4q-3 0 -8 -2.5t-7 -5.5q1 -4 3.5 -9t4.5 -12q5 -14 12.5 -29.5t22.5 -15.5h84l-41 94v61q8 2 10 2h7h30q2 0 3 -1v-109q-2 -2 -4 -5.5t-4 -5.5l-6 -5v-9q0 -8 3 -15.5t16 -7.5h58q11 0 13.5 5.5t2.5 13.5
q0 11 -4.5 17t-9.5 12v249q0 8 7 15q3 5 5.5 9.5t2.5 21.5h-63q-8 0 -11.5 -5t-5.5 -10q-5 5 -10.5 10t-12.5 5h-51q-6 0 -12.5 -4t-12.5 -9.5t-10 -12t-4 -11.5zM110 628q0 5 6 7t13 2q6 0 18.5 -2t12.5 -9v-70h-50v72z" />
    <glyph glyph-name="FL00ABh" unicode="&#xab;" horiz-adv-x="297" 
d="M118 237q32 0 39.5 11t7.5 41q0 11 -9 20.5t-20 19.5q-9 8 -16.5 16t-7.5 15v1q0 2 4.5 7.5t11.5 15.5q10 12 20.5 26.5t16.5 25.5q2 4 2 11q0 12 -7.5 26t-26.5 14q-10 0 -19 -5h1q-35 -15 -57.5 -39t-27.5 -45q0 -3 -0.5 -6t-0.5 -8v-15q0 -12 0.5 -23.5t0.5 -19.5
q8 -25 32.5 -46t48.5 -38zM241 236q31 0 39 11t8 41q0 11 -9 20.5t-20 19.5q-10 8 -17 16t-7 15v1q0 2 4.5 7.5t11.5 15.5q9 12 19.5 26.5t17.5 25.5q2 4 2 12q0 12 -8 25.5t-26 13.5q-5 0 -9.5 -1t-9.5 -4h1q-35 -15 -57.5 -39t-27.5 -45q-2 -8 -2 -13v-15q0 -12 0.5 -24
t1.5 -20q3 -12 11.5 -24t20 -22.5t24 -20t24.5 -17.5z" />
    <glyph glyph-name="FL00ACh" unicode="&#xac;" horiz-adv-x="334" 
d="M290 315l4 -38q1 -7 4 -11l6 -8v1q5 -5 8.5 -11t3.5 -18v-1q0 -7 -1.5 -10t-9.5 -7h-110q-14 0 -18.5 2.5t-4.5 8.5t3 8v-1q0 8 6 16.5t12 16.5q4 5 7 8.5t3 5.5l-2 32l-98 1q-5 -2 -8 -6.5t-6 -9.5q-4 -8 -9.5 -15t-17.5 -7q-18 0 -25 18v114q0 23 6.5 27t14.5 4
q9 0 18 -7.5t17 -16.5q6 -5 10 -9.5t5 -4.5l28 -1h139q3 1 5 1q9 0 15.5 -10.5t6.5 -19.5z" />
    <glyph glyph-name="FL00ADh" unicode="&#xad;" horiz-adv-x="325" 
d="M228 302q-6 0 -12.5 0.5t-11.5 2.5h-101q-5 -2 -8 -7l-6 -10q-5 -8 -10 -15t-17 -7q-18 0 -25 18v112q0 23 6.5 26.5t14.5 3.5q9 0 17.5 -7.5t17.5 -15.5l9.5 -9.5t5.5 -4.5l28 -2h70l20 2l49 40q5 1 6 2q9 0 15.5 -10t6.5 -18v-120q-3 -7 -11 -14t-13 -7q-11 0 -18.5 8
t-14.5 16q-5 5 -8 9t-2 4z" />
    <glyph glyph-name="registered" unicode="&#xae;" horiz-adv-x="257" 
d="M117 588v-18h14q12 0 16 2t4 7t-5 8h-2q-5 0 -8 0.5t-6 0.5h-13zM58 557q0 -35 26 -58v116q-26 -24 -26 -58zM92 492q1 -1 5 -3q19 -11 40 -11q20 0 39 11q4 2 5 3h-23l-11 22q-12 20 -19 24q-1 1 -8 1h-3v-47h-25zM133 635q-25 0 -45 -17h42q23 0 31.5 -3t16.5 -14
q3 -6 5 -11t2 -10q0 -21 -22 -34q6 -6 15 -21l14 -23q4 3 7 7t6 9q5 9 7.5 18.5t2.5 20.5q0 17 -10 39q-14 21 -33 31q-13 8 -35 8h-4zM137 668q28 0 54 -14q24 -14 42 -42q7 -13 11 -27t4 -28q0 -15 -4 -29t-11 -26q-15 -27 -41 -41q-13 -8 -27 -11t-28 -3t-28.5 3
t-27.5 11q-12 8 -22 17t-19 24q-14 25 -14 55q0 14 4 27.5t12 30.5q8 12 17.5 21t23.5 17h-1q27 15 55 15z" />
    <glyph glyph-name="FL00AFh" unicode="&#xaf;" horiz-adv-x="355" 
d="M74 628q-2 -2 -7 -3.5t-10 -2.5h1q-10 -4 -19.5 -8t-13.5 -14q-2 -3 -2 -14v-29q0 -10 1 -13q4 -12 22 -21.5t44 -9.5l169 1q4 -1 14 -1t21.5 2t22 5t17.5 7t7 8v63q0 14 -11 22t-29 8h-227z" />
    <glyph glyph-name="FL00B0h" unicode="&#xb0;" horiz-adv-x="182" 
d="M27 559q0 30 20.5 49t50.5 19q29 0 49.5 -19t20.5 -49q0 -27 -20.5 -46.5t-49.5 -19.5q-30 0 -50.5 19.5t-20.5 46.5z" />
    <glyph glyph-name="FL00B1h" unicode="&#xb1;" horiz-adv-x="325" 
d="M161 91l-50 -4q-6 -1 -10.5 -7t-7.5 -12q-6 -11 -12 -19t-19 -8q-5 0 -13 2.5t-12 11.5l1 147q0 23 5 31.5t13 8.5q10 0 19 -10.5t18 -21.5q5 -8 10.5 -14.5t7.5 -6.5h117l48 52q18 0 22.5 -12t4.5 -23l1 -146q-4 -8 -11.5 -13.5t-12.5 -5.5q-11 0 -18 7.5t-13 18.5
q-3 5 -6.5 10.5t-5.5 6.5l-8 4l7 2l-6 10l-5.5 -1.5t-13.5 -3t-16.5 -3t-13.5 -1.5h-20zM228 320h-11l5 -14q1 -8 4 -12t5 -8v1q5 -5 9 -11.5t4 -18.5v-2q0 -7 -1.5 -10t-10.5 -7h-109q-14 0 -18.5 2.5t-4.5 8.5t3 9q0 8 6 16.5t12 16.5q3 4 6 7t3 5l-3 19l-24 -1h1
q-5 -1 -8.5 -6t-6.5 -11q-5 -8 -10 -15.5t-17 -7.5q-18 0 -25 19v118q0 24 6.5 28t14.5 4q9 0 17.5 -7.5t17.5 -16.5q12 -14 15 -14l20 -2v15l-26 47q-1 4 -2 6q0 19 16 19h112q8 -5 9.5 -8t1.5 -10v-2q0 -11 -3.5 -17.5t-8.5 -12.5q-3 -4 -5.5 -6.5t-4.5 -7.5l2 -2l-4 -19
h11l49 42q5 1 6 2q9 0 15.5 -10.5t6.5 -19.5v-127q-3 -7 -10.5 -14.5t-12.5 -7.5q-12 0 -19.5 8.5t-14.5 16.5q-5 5 -8 9.5t-2 4.5z" />
    <glyph glyph-name="FL00B2h" unicode="&#xb2;" horiz-adv-x="245" 
d="M183 440q12 0 16.5 -12.5t5.5 -20.5q0 -2 0.5 -4.5t0.5 -3.5v2q5 -16 16 -29.5t25 -29.5h-193l-27 104v14q0 26 8 42.5t21 27.5t28.5 17.5t30.5 11.5q20 7 34.5 14t14.5 24q0 14 -12 25t-26 11q-11 0 -17.5 -7t-10.5 -15q-5 -6 -8 -10t-11 -4h-3h-5q-2 0 -4 2t-3.5 6.5
t-3.5 7.5q-6 12 -13 27t-7 29v10l11 6h88q18 0 32.5 -12t25 -29t16.5 -36t6 -34q0 -21 -7.5 -34.5t-20 -23.5t-27.5 -16.5t-30 -12.5v1q-23 -8 -40 -17.5t-17 -29.5q0 -5 0.5 -13t2 -16t3 -13.5t3.5 -5.5h57l-3 -4q3 3 3 4h1h-1q6 5 10 11t9 14t10 15t11 7z" />
    <glyph glyph-name="FL00B3h" unicode="&#xb3;" horiz-adv-x="217" 
d="M177 645q1 -2 4 -5.5t5 -5.5q7 -7 13 -15.5t6 -21.5v-200q0 -8 -4.5 -18t-11 -18t-15 -13.5t-16.5 -5.5h-66q-11 0 -22.5 7t-21 18.5t-15.5 24.5t-6 25q0 15 17 15q12 0 16.5 -8.5t6.5 -18.5q2 -6 4.5 -12t7.5 -6h45q8 0 12.5 13.5t4.5 20.5v76q-11 2 -14 2h-5h-11
q-5 0 -13.5 -0.5t-16.5 -3.5q3 1 2.5 -1.5t-2.5 -4.5q-3 -5 -7 -10t-10 -5h-4q-8 0 -8 5q-1 1 -1 5l-3 72v1q0 8 3 15.5t16 7.5l23 -25h49l2 2v62q0 2 -3.5 7t-5.5 5h-45q1 0 0.5 -0.5t-1.5 -0.5q-2 -1 -5.5 -2.5l-3.5 -1.5l5 2l-23 -25h-25v82h90q5 0 10.5 -2.5t10.5 -5.5z
" />
    <glyph glyph-name="FL00B4h" unicode="&#xb4;" horiz-adv-x="180" 
d="M146 553l-9 -7q-11 -10 -27.5 -24.5t-36.5 -24.5q-2 -2 -12 -2q-13 0 -25.5 7.5t-12.5 24.5q0 11 5 17q14 33 37.5 54t43.5 26q6 2 12 2h15q14 0 22 -13.5t11 -24.5z" />
    <glyph glyph-name="FL00B5h" unicode="&#xb5;" horiz-adv-x="470" 
d="M409 305l-1 206l-74 81h8q17 0 26 -7t17 -14q8 -8 18 -15t28 -7q3 0 14.5 2t16.5 4q0 1 -3 7t-6.5 14t-4.5 11q-6 15 -13.5 32t-17 32t-21 25t-24.5 10h-170l90 -185l1 -156q0 -17 -16 -22t-30 -5q-6 0 -17 1t-22 4.5t-19 9.5t-8 17v250q2 4 7.5 11t9.5 11q2 2 4.5 5
t5.5 7v7q0 2 0.5 3.5t0.5 3.5q0 15 -5 26.5t-25 11.5h-129q-16 0 -20.5 -10t-4.5 -21q0 -19 9 -31t20 -24q0 -1 1 -1v-530q0 -10 8 -22t19.5 -22.5t24 -17.5t22.5 -7h106q55 0 89.5 11t55.5 26t30.5 30.5t13.5 24.5v-1q0 2 1 4t0 1q4 4 4.5 13t0.5 22q0 8 -0.5 14.5
t-0.5 11.5v7q0 11 -3.5 24.5t-9.5 27t-13.5 25.5t-15.5 18q15 15 22 44v2zM335 236h5q-3 -11 -3 -22q0 -16 4 -31q1 -4 1 -10q0 -19 -15.5 -33t-36 -23.5t-41.5 -14.5t-32 -5q-3 0 -6 -0.5t-6 -0.5h-13q-8 0 -14.5 2.5t-6.5 10.5v151q1 2 2 6t3 7q9 -11 23.5 -24t29.5 -13
h106z" />
    <glyph glyph-name="FL00B6h" unicode="&#xb6;" horiz-adv-x="494" 
d="M461 22q0 14 -6 20.5t-20 15.5v383q0 24 1.5 39t4 24t4.5 13.5t4 7.5t4 5.5t2 7.5v2l4 10q2 5 5.5 17.5t7 27t6 27.5t4.5 20q1 5 1 10q0 15 -6.5 24.5t-24.5 9.5h-272q-23 0 -44 -9.5t-38 -25t-27 -36.5t-10 -44t7 -41.5t18 -34.5t25.5 -30.5t28.5 -27.5l1 -1
q-9 -10 -20.5 -23t-21.5 -27t-17 -29t-7 -29v-264q0 -8 -2 -11.5t-6 -7.5q-5 -6 -10 -14.5t-5 -30.5h101q4 0 11.5 5t14.5 11.5t12 13.5t5 11v259q0 17 10 46t26 59t35.5 55.5t38.5 35.5v-435l-28 -34q-1 -3 -1 -8l1 -2q5 -7 7 -9l8 -8h154q11 0 12.5 7t1.5 12v3z" />
    <glyph glyph-name="FL00B7h" unicode="&#xb7;" horiz-adv-x="181" 
d="M28 306q0 27 20.5 47t49.5 20q31 0 51 -20t20 -47q0 -30 -20 -48.5t-51 -18.5q-29 0 -49.5 18.5t-20.5 48.5z" />
    <glyph glyph-name="FL00B8h" unicode="&#xb8;" horiz-adv-x="131" 
d="M36 -104l-37 -4q-8 -1 -12 -2t-9 -3q-5 -1 -9.5 -2t-15.5 -1h-1q-7 0 -9.5 1.5t-7.5 9.5l-3 68q0 13 2.5 17.5t8.5 4.5t9 -3h-1q7 0 15 -2t16 -5v1l16 -5l31 8l-3 35l89 4v-107q1 -4 2 -6q0 -8 -10.5 -14t-19.5 -6z" />
    <glyph glyph-name="FL00B9h" unicode="&#xb9;" horiz-adv-x="131" 
d="M108 386l6 -9q-1 2 1.5 -0.5l5.5 -5.5v-9q0 -8 -2.5 -15t-14.5 -7h-60q-10 0 -12.5 6t-2.5 12q0 11 4 17t9 12v249q0 5 -9 14q-5 5 -8.5 11.5t-3.5 21.5h68q10 0 12.5 -6t4.5 -14v1q1 -3 1.5 -6.5l0.5 -3.5v-268z" />
    <glyph glyph-name="FL00BDh" unicode="&#xba;" horiz-adv-x="242" 
d="M33 589v-195q0 -8 5 -17t13 -16.5t16.5 -13t16.5 -6.5h27q36 0 58.5 14t42.5 45h-1q5 7 8.5 17t3.5 18v178q0 12 -6 25t-15.5 23t-21.5 16.5t-23 6.5h-74q-11 0 -19 -6t-15 -14.5t-11.5 -18t-7.5 -17.5v-9q0 -13 11 -13h2q-10 -9 -10 -17zM140 626q3 -2 4 -5.5t1 -6.5
v-173q0 -17 -2.5 -25.5t-16.5 -8.5q-9 0 -13 4.5t-4 16.5v159q0 3 0.5 6.5t1.5 8.5l3 18l-6 6h32z" />
    <glyph glyph-name="FL00BBh" unicode="&#xbb;" horiz-adv-x="297" 
d="M200 237q-31 0 -38.5 11t-7.5 41q0 11 9 20.5t20 19.5l16 16t8 15v1q0 2 -4.5 7.5t-11.5 15.5q-10 12 -20.5 26.5t-16.5 25.5q-2 4 -2 11q0 12 7.5 26t26.5 14q9 0 19 -5h-1q35 -15 57.5 -39t27.5 -45q1 -3 1.5 -6t0.5 -8v-15q0 -12 -0.5 -23.5t-1.5 -19.5
q-4 -12 -12.5 -23.5t-20 -22t-24 -20.5t-24.5 -18zM78 236q-16 0 -25 2.5t-14 8.5t-6.5 16t-1.5 25q0 11 9.5 20.5t20.5 19.5q8 8 15.5 16t7.5 15v1q0 2 -16 23q-9 12 -19.5 26.5t-17.5 25.5q-1 4 -1 12q0 12 7.5 25.5t25.5 13.5q10 0 19 -5h-1q35 -15 57.5 -39t27.5 -45
q2 -8 2 -13v-15q0 -12 -0.5 -24t-1.5 -20q-3 -12 -12 -23.5t-20.5 -22t-24 -20.5t-24.5 -18z" />
    <glyph glyph-name="FL0F6Ch" unicode="&#xbc;" horiz-adv-x="523" 
d="M125 343l6 -9h1q-2 2 1 -0.5t7 -6.5v-8q0 -9 -3 -16t-17 -7h-68q-11 0 -13.5 6t-2.5 13q0 11 4.5 17t9.5 12v255q0 5 -9 14q-5 5 -9.5 11.5t-4.5 22.5h77q11 0 13.5 -6.5t4.5 -14.5v1l2 -6l1 -3v-275zM403 38q0 5 6 12t11 12v123h-117v143q-5 4 -8.5 9t-5.5 8q-1 2 -1 7
v3q0 9 3 16t16 7h65q10 0 12.5 -7t2.5 -12q0 -10 -4 -16t-11 -12h1l-2 -2v-84h49v83q-5 4 -9.5 10.5t-5.5 8.5v8q0 9 3 16t16 7h64q10 0 13.5 -7t3.5 -12q0 -11 -4.5 -17.5t-10.5 -12.5v-253l28 -49h-103q-12 0 -12 11zM384 604l-217 -516l51 -88h-142q-12 0 -15.5 8.5
t-3.5 19.5v16q0 7 -4 12l231 541q-5 4 -11 9.5t-12 11.5t-10.5 11t-5.5 7v5q0 2 -0.5 3.5t-0.5 3.5q0 15 5.5 26.5t25.5 11.5h129q16 0 20.5 -10t4.5 -21q0 -14 -8.5 -21.5t-18.5 -13.5q-8 -5 -16 -13v1z" />
    <glyph glyph-name="FL00BEh" unicode="&#xbd;" horiz-adv-x="508" 
d="M125 343l6 -9h1q-2 2 1 -0.5t6 -6.5v-8q0 -9 -2.5 -16t-16.5 -7h-68q-11 0 -13.5 6t-2.5 13q0 11 4.5 17t9.5 12v255q0 5 -9 14q-5 5 -9.5 11.5t-4.5 22.5h77q11 0 13.5 -6.5t4.5 -14.5v1l2 -6l1 -3v-275zM443 129q13 0 17 -12.5t5 -21.5q0 -2 0.5 -4.5t0.5 -3.5v2
q5 -17 17 -30.5t26 -30.5h-200l-28 107v14q0 27 8.5 44t21.5 28t29 17.5t32 11.5q20 7 35.5 14.5t15.5 24.5q0 15 -12.5 26t-27.5 11q-11 0 -17.5 -7t-11.5 -15q-5 -7 -8 -11t-11 -4h-4h-5q-2 0 -4 2t-3.5 6.5t-3.5 8.5l-13.5 27t-7.5 30v10l12 6h91q18 0 33.5 -12
t26.5 -29.5t17 -37t6 -34.5q0 -21 -8 -35.5t-20.5 -24.5t-28.5 -16.5t-31 -12.5v1q-23 -9 -41.5 -18.5t-18.5 -29.5q0 -5 1 -13.5t2.5 -16.5t3 -14t3.5 -6h60l-4 -4q1 1 2 1.5t2 2.5h1h-1q11 12 19 26q6 8 10.5 15.5t11.5 7.5zM383 604l-216 -516l51 -88h-142
q-12 0 -15.5 8.5t-3.5 19.5v16q0 7 -4 12l231 541q-5 4 -11 9.5t-12 11.5t-10.5 11t-5.5 7v5q0 2 -0.5 3.5t-0.5 3.5q0 15 5.5 26.5t25.5 11.5h128q17 0 21.5 -10t4.5 -21q0 -14 -8.5 -21.5t-18.5 -13.5q-8 -5 -16 -13v1z" />
    <glyph glyph-name="FL0F7Dh" unicode="&#xbe;" horiz-adv-x="576" 
d="M188 608q1 -2 4 -5.5t5 -5.5q8 -8 14.5 -16t6.5 -22v-205q0 -8 -4.5 -18t-12 -18.5t-16.5 -14t-17 -5.5h-70q-12 0 -24 7.5t-22 18.5t-16.5 24.5t-6.5 25.5q0 16 18 16q13 0 17.5 -8.5t7.5 -18.5q2 -7 5 -13t8 -6h47q9 0 13.5 13.5t4.5 21.5v77q-11 2 -14 2h-7h-10
q-6 0 -15 -0.5t-17 -3.5q2 1 2 -1t-2 -4q-3 -6 -7.5 -11t-11.5 -5h-4q-6 0 -7.5 0.5t-1.5 4.5v6l-3 73v1q0 8 3 15.5t17 7.5l24 -25h52l2 2v63q0 2 -3.5 7t-6.5 5h-48q1 0 0.5 -0.5t-1.5 -0.5q-2 -1 -5.5 -2.5l-3.5 -1.5l6 2l-25 -25h-26v84h95q5 0 11.5 -2.5t11.5 -5.5z
M456 38q0 5 5.5 12t11.5 12v123h-117v143q-11 9 -15 17q-1 2 -1 7v3q0 9 3 16t16 7h65q11 0 13.5 -7t2.5 -12q0 -10 -4.5 -16t-11.5 -12h1l-1 -2v-84h49v83q-5 4 -10 10.5t-6 8.5v8q0 9 3 16t17 7h64q10 0 13.5 -7t3.5 -12q0 -11 -4.5 -17.5t-10.5 -12.5v-253l28 -49h-103
q-8 0 -10 3t-2 8zM436 604l-217 -516l51 -88h-143q-11 0 -14.5 8.5t-3.5 19.5v16q0 7 -4 12l231 541q-5 4 -11 9.5t-12 11.5t-10.5 11t-5.5 7v5q0 2 -0.5 3.5t-0.5 3.5q0 15 5.5 26.5t25.5 11.5h130q16 0 20.5 -10t4.5 -21q0 -14 -8.5 -21.5t-18.5 -13.5q-8 -5 -16 -13v1z
" />
    <glyph glyph-name="FL00BFh" unicode="&#xbf;" horiz-adv-x="396" 
d="M334 613q0 -30 -22 -52t-53 -22t-53 22t-22 52q0 32 22 52.5t53 20.5t53 -20.5t22 -52.5zM330 503q2 0 6 -14.5t7.5 -32.5t6 -34t2.5 -19q0 -26 -27.5 -50.5t-64.5 -50.5q-20 -14 -40.5 -29.5t-38 -31t-30.5 -32.5t-19 -34q-2 -6 -3 -10.5t-1 -6.5q0 -14 8.5 -27
t21.5 -22.5t29 -15t30 -5.5q26 0 39.5 15.5t24.5 31.5q7 11 14 20t18 9q1 0 4.5 -0.5t5.5 -0.5q3 -1 8 -1q3 -7 6 -13t8 -13q13 -24 26.5 -53t13.5 -58v-3t-2 -13l-16 -9h-178q-28 0 -56.5 20t-52 49t-38 63t-14.5 61q0 2 -0.5 3.5t-0.5 4.5q-1 7 -1 15v20q0 5 4.5 16.5
t10.5 23.5t11.5 21.5t7.5 10.5l-3 -1q57 29 91.5 56.5t53.5 50.5t27 40.5t11 27.5v-1q2 8 4 11.5t8 4.5z" />
    <glyph glyph-name="FL00C0h" unicode="&#xc0;" 
d="M70 618v-443l66 -81h-4h-4q-18 0 -25.5 6t-14.5 14q-8 9 -16.5 15t-25.5 6q-5 0 -7.5 -0.5t-4.5 -1.5q-3 -1 -8 -1h-5q7 -13 9 -20t6 -17q5 -14 11 -31t14.5 -31t19 -23.5t24.5 -9.5h162l-82 184v133q11 2 17 3t10.5 1.5t7.5 0.5h9h7q3 0 6.5 0.5t5.5 0.5h41
q5 0 8.5 -0.5t7.5 -1.5v-236q-8 -6 -17 -18t-11 -17v-4q0 -2 -0.5 -4.5t-0.5 -4.5q0 -14 5.5 -26t25.5 -12h120q16 0 20.5 9.5t4.5 20.5q0 20 -8.5 32t-20.5 23v517q0 12 4.5 19t9.5 15q7 9 12.5 19.5t5.5 32.5l-122 1q-15 0 -20 -11t-9 -24q-1 -2 -1 -5q-10 12 -24.5 26
t-29.5 14h-105q-11 0 -24 -7t-24 -17.5t-18.5 -23t-7.5 -22.5zM185 578q0 17 16 22.5t31 5.5q6 0 18.5 -1t24.5 -5t21 -10.5t9 -16.5v-150l-119 -1l-1 1v155zM175 778l9 -7q11 -11 29.5 -27.5t39.5 -26.5q3 -3 13 -3q14 0 27.5 8.5t13.5 26.5q0 12 -5 20v-1q-16 37 -40.5 60
t-46.5 28q-8 2 -13 2h-16q-16 0 -24.5 -14.5t-10.5 -26.5z" />
    <glyph glyph-name="FL00C1h" unicode="&#xc1;" 
d="M70 618v-443l66 -81h-4h-4q-18 0 -25.5 6t-14.5 14q-8 9 -16.5 15t-25.5 6q-5 0 -7.5 -0.5t-4.5 -1.5q-3 -1 -8 -1h-5q7 -13 9 -20t6 -17q5 -14 11 -31t14.5 -31t19 -23.5t24.5 -9.5h162l-82 184v133q11 2 17 3t10.5 1.5t7.5 0.5h9h7q3 0 6.5 0.5t5.5 0.5h41
q5 0 8.5 -0.5t7.5 -1.5v-236q-8 -6 -17 -18t-11 -17v-4q0 -2 -0.5 -4.5t-0.5 -4.5q0 -14 5.5 -26t25.5 -12h120q16 0 20.5 9.5t4.5 20.5q0 20 -8.5 32t-20.5 23v517q0 11 4.5 18.5t9.5 15.5q7 9 12.5 19.5t5.5 32.5l-122 1q-15 0 -20 -11.5t-9 -23.5q-1 -2 -1 -5
q-10 12 -24.5 26t-29.5 14h-105q-11 0 -24 -7t-24 -17.5t-18.5 -23t-7.5 -22.5zM185 578q0 17 16 22.5t31 5.5q6 0 18.5 -1t24.5 -5t21 -10.5t9 -16.5v-150l-119 -1l-1 1v155zM340 810q-3 12 -9.5 28t-22.5 16h-16q-5 0 -13 -2q-22 -5 -46.5 -28t-40.5 -60v1q-5 -8 -5 -20
q0 -18 13.5 -26.5t27.5 -8.5q10 0 13 3q13 7 26.5 16t24 18t18.5 17t11 13z" />
    <glyph glyph-name="FL00C2h" unicode="&#xc2;" 
d="M70 618v-443l66 -81h-4h-4q-18 0 -25.5 6t-14.5 14q-8 9 -16.5 15t-25.5 6q-5 0 -7.5 -0.5t-4.5 -1.5q-3 -1 -8 -1h-5q7 -13 9 -20t6 -17q5 -14 11 -31t14.5 -31t19 -23.5t24.5 -9.5h162l-82 184v133q11 2 17 3t10.5 1.5t7.5 0.5h9h7q3 0 6.5 0.5t5.5 0.5h41
q5 0 8.5 -0.5t7.5 -1.5v-236q-8 -6 -17 -18t-11 -17v-4q0 -2 -0.5 -4.5t-0.5 -4.5q0 -14 5.5 -26t25.5 -12h120q16 0 20.5 9.5t4.5 20.5q0 20 -8.5 32t-20.5 23v517q0 12 4.5 19t9.5 15q7 9 12.5 19.5t5.5 32.5l-122 1q-15 0 -20 -11t-9 -24q-1 -2 -1 -5q-10 12 -24.5 26
t-29.5 14h-105q-11 0 -24 -7t-24 -17.5t-18.5 -23t-7.5 -22.5zM117 763q0 -32 11 -40t42 -8q11 0 21 9t20 21q8 9 16 17t16 8h1q3 0 23 -17q13 -10 28 -20.5t26 -17.5q4 -2 12 -2q12 0 26 8t14 27q0 10 -5 20v-1q-16 37 -40 60t-46 28q-3 1 -6 1.5t-8 0.5h-15
q-13 0 -25 -0.5t-20 -1.5q-12 -4 -23.5 -13t-22.5 -21t-21 -25t-19 -25zM185 578q0 17 16 22.5t31 5.5q6 0 18.5 -1t24.5 -5t21 -10.5t9 -16.5v-150l-119 -1l-1 1v155z" />
    <glyph glyph-name="FL00C3h" unicode="&#xc3;" 
d="M70 619v-444l66 -81h-4h-4q-18 0 -25.5 6t-14.5 14q-8 9 -16.5 15t-25.5 6q-5 0 -7.5 -0.5t-4.5 -1.5q-3 -1 -8 -1h-5q7 -13 9 -20t6 -17q5 -14 11 -31t14.5 -31t19 -23.5t24.5 -9.5h162l-82 184v133q11 2 17 3t10.5 1.5t7.5 0.5h9h7q3 0 6.5 0.5t5.5 0.5h41
q5 0 8.5 -0.5t7.5 -1.5v-236q-8 -6 -17 -18t-11 -17v-4q0 -2 -0.5 -4.5t-0.5 -4.5q0 -14 5.5 -26t25.5 -12h120q16 0 20.5 9.5t4.5 20.5q0 20 -8.5 32t-20.5 23v517q0 12 4.5 19t9.5 15q7 9 12.5 19.5t5.5 32.5l-122 1q-15 0 -20 -11t-9 -24q-1 -2 -1 -5q-10 12 -24.5 26
t-29.5 14h-105q-11 0 -24 -7t-24 -17.5t-18.5 -22.5t-7.5 -22zM406 813q0 32 -9.5 40t-34.5 8q-12 0 -25 -13.5t-24 -28.5q-4 -5 -7.5 -10t-6.5 -8q-11 20 -23.5 31t-23.5 19q-5 5 -13 8t-16 3h-15q-7 0 -15 -0.5t-16 -3.5h1q-11 -3 -22.5 -13.5t-22.5 -24t-20.5 -27.5
t-16.5 -26l-4 -8v-6q0 -26 14.5 -30.5t37.5 -4.5h7l58 58q12 -21 24.5 -31.5t26.5 -18.5l32 -7q13 0 24 0.5t17 1.5q9 3 18 11.5t17.5 19.5t16 23.5t14.5 24.5q1 2 1.5 2.5t1.5 2.5zM185 578q0 17 16 22.5t31 5.5q6 0 18.5 -1t24.5 -5t21 -10.5t9 -16.5v-150l-119 -1l-1 1
v155z" />
    <glyph glyph-name="FL00C4h" unicode="&#xc4;" 
d="M90 795q0 33 22 54t54 21q31 0 53 -21t22 -54q0 -30 -22 -51t-53 -21q-32 0 -54 21t-22 51zM261 794q0 33 22 54t54 21t54 -21t22 -54q0 -30 -22 -51t-54 -21t-54 21t-22 51zM185 423l1 -1l119 1v150q0 10 -9 16.5t-21 10.5t-24.5 5t-18.5 1q-15 0 -31 -5.5t-16 -22.5
v-155zM136 94l-66 81v444q0 10 7.5 22t18.5 22.5t24 17.5t24 7h105q15 0 29.5 -14t24.5 -26q0 3 1 5q4 13 9 24t20 11l122 -1q0 -22 -5.5 -32.5t-12.5 -19.5q-5 -7 -9.5 -14.5t-4.5 -19.5v-517q12 -11 20.5 -23t8.5 -32q0 -11 -4.5 -20.5t-20.5 -9.5h-120q-20 0 -25.5 12
t-5.5 26q0 2 0.5 4.5t0.5 4.5v4q2 5 11 17t17 18v236q-4 1 -7.5 1.5t-8.5 0.5h-41q-2 0 -5.5 -0.5t-6.5 -0.5h-7h-9q-3 0 -7.5 -0.5t-10.5 -1.5t-17 -3v-133l82 -184h-162q-14 0 -24.5 9.5t-19 23.5t-14.5 31t-11 31q-4 10 -6 17t-9 20h5q5 0 8 1q2 1 4.5 2t7.5 1
q17 0 25.5 -6.5t16.5 -15.5q7 -8 14.5 -14t25.5 -6h4h4z" />
    <glyph glyph-name="FL00C5h" unicode="&#xc5;" 
d="M173 793q0 33 22 54t54 21q31 0 53 -21t22 -54q0 -30 -22 -51t-53 -21q-32 0 -54 21t-22 51zM185 423l1 -1l119 1v150q0 10 -9 16.5t-21 10.5t-24.5 5t-18.5 1q-15 0 -31 -5.5t-16 -22.5v-155zM136 94l-66 81v444q0 10 7.5 22t18.5 22.5t24 17.5t24 7h105q15 0 29.5 -14
t24.5 -26q0 3 1 5q4 13 9 24t20 11l122 -1q0 -22 -5.5 -32.5t-12.5 -19.5q-5 -8 -9.5 -15t-4.5 -19v-517q12 -11 20.5 -23t8.5 -32q0 -11 -4.5 -20.5t-20.5 -9.5h-120q-20 0 -25.5 12t-5.5 26q0 2 0.5 4.5t0.5 4.5v4q2 5 11 17t17 18v236q-4 1 -7.5 1.5t-8.5 0.5h-41
q-2 0 -5.5 -0.5t-6.5 -0.5h-7h-9q-3 0 -7.5 -0.5t-10.5 -1.5t-17 -3v-133l82 -184h-162q-14 0 -24.5 9.5t-19 23.5t-14.5 31t-11 31q-4 10 -6 17t-9 20h5q5 0 8 1q2 1 4.5 2t7.5 1q17 0 25.5 -6.5t16.5 -15.5q7 -8 14.5 -14t25.5 -6h4h4z" />
    <glyph glyph-name="FL00C6h" unicode="&#xc6;" horiz-adv-x="778" 
d="M189 422l1 -1l120 1v150q0 10 -9 16.5t-21 10t-24.5 4.5t-19.5 1q-15 0 -31 -5t-16 -22v-155zM72 617q0 10 7.5 22t19 22.5t24.5 17.5t24 7h107q15 0 30 -14t24 -26q0 3 1 5q4 12 9.5 23.5t20.5 11.5l124 -1q0 -22 -6 -32.5t-13 -19.5q-5 -8 -9 -15t-4 -19v-26l12 12
q14 15 22 25l60 58q10 8 22.5 13t20.5 5h183v-151h-40l-48 47h1q-2 2 -8.5 5.5t-8.5 3.5h-96q-4 0 -8.5 -3.5t-8.5 -9t-6.5 -10.5t-2.5 -8v-133l6 -7h116q6 0 10 6.5t8 14.5q5 11 11.5 21t20.5 10q17 0 21 -13.5t4 -25.5v-3q0 -8 -0.5 -29t-1.5 -44q-2 -24 -2.5 -46
t-0.5 -30q-5 -8 -8 -9.5t-10 -1.5h-2q-13 0 -19 8t-12 19q-4 6 -7.5 11.5t-5.5 6.5q-11 5 -29 6t-30 1q-3 0 -6.5 -0.5t-6.5 -0.5h-7q-11 0 -21 4.5t-9 4.5l-19 -16q0 -23 -0.5 -40t-0.5 -31v-61q0 -8 0.5 -13.5t0.5 -9.5v-5q0 -8 2.5 -21t8 -25.5t13.5 -21.5t19 -9h96
q14 0 20.5 13.5t11.5 28.5q6 20 14.5 34.5t28.5 14.5q16 0 22.5 -3.5t6.5 -19.5q0 -23 -12 -48.5t-31 -47t-43 -35.5t-47 -14h-141q-18 0 -36 13q-5 -13 -23 -13h-123q-20 0 -25.5 12t-5.5 26q0 2 0.5 4.5t0.5 4.5v4q2 5 11.5 16.5t16.5 18.5v235q-4 1 -15 1h-42h-12h-8h-9
q-3 0 -7.5 -0.5t-10.5 -1.5t-17 -3v-133l83 -183h-164q-14 0 -25 9.5t-19.5 23.5t-15 31t-11.5 31q-4 9 -6 16t-8 20h5t7 1q2 1 4.5 2t8.5 1q17 0 25.5 -6.5t16.5 -15.5q7 -7 15 -13t26 -6h4h4l-67 80v442z" />
    <glyph glyph-name="FL00C7h" unicode="&#xc7;" horiz-adv-x="400" 
d="M209 -114l-39 -5q-8 -1 -12.5 -2t-8.5 -3q-5 -2 -10 -3t-16 -1h-2q-7 0 -10 1.5t-7 10.5l-3 76q0 14 2.5 18.5t8.5 4.5t9 -3h-1q7 0 15.5 -2.5t16.5 -4.5v1l17 -5l32 8l-2 23h-77q-15 0 -31 11t-29 26.5t-21.5 33.5t-8.5 33v412q0 22 12.5 40.5t26.5 32.5v-1q5 5 11 13
l6 8l63 62q11 8 23 13t20 5h179v-153h-40l-47 49h1q-2 2 -8 5t-8 3h-94q-3 0 -7.5 -4t-8.5 -9t-7 -10.5t-3 -8.5q-1 -5 -1 -11v-11v-315q0 -19 0.5 -32t0.5 -21v-16q0 -8 3 -21.5t8 -26t13 -21.5t19 -9h93q14 0 20.5 13.5t11.5 29.5q6 19 14 34t28 15q15 0 21.5 -3.5
t6.5 -20.5q0 -20 -8.5 -41t-22 -40t-31.5 -34t-36 -23v-105q1 -4 2 -6q0 -9 -11 -16t-20 -7z" />
    <glyph glyph-name="FL00C8h" unicode="&#xc8;" horiz-adv-x="396" 
d="M151 675l-63 -63q-3 -4 -8.5 -11t-10.5 -12v1q-14 -15 -27.5 -33t-13.5 -41v-412q0 -15 8.5 -33t21.5 -33.5t29 -26.5t31 -11h138q22 0 45 14t42 35.5t30.5 47t11.5 48.5q0 17 -6.5 20.5t-21.5 3.5q-20 0 -28 -15t-14 -34q-5 -16 -11 -29t-20 -13h-94q-11 0 -18.5 9
t-13 21.5t-8 25.5t-2.5 21v5q0 4 -0.5 9.5t-0.5 13.5v61q0 14 0.5 31t0.5 40l19 17q-1 0 8.5 -5t19.5 -5h7q4 0 7.5 0.5t6.5 0.5q11 0 28.5 -1t28.5 -6q2 -1 5.5 -6.5t6.5 -11.5q6 -10 12.5 -18.5t18.5 -8.5h2q7 0 9.5 1.5t7.5 10.5q0 8 0.5 30t2.5 45q1 24 2 45t1 29v3
q0 12 -4 25.5t-21 13.5q-13 0 -20 -10t-12 -21q-3 -8 -7 -14.5t-10 -6.5h-114l-5 7v133q0 3 2.5 8.5t6.5 10.5t8.5 9t7.5 4h94q2 0 8.5 -3.5t8.5 -5.5h-1l46 -48h40v152h-179q-8 0 -19 -4t-19 -10h-1zM135 777l10 -7q11 -11 29 -27.5t39 -26.5q3 -3 13 -3q14 0 27 8.5
t13 26.5q0 12 -4 20v-1q-17 37 -41 60t-46 28q-6 2 -13 2h-15q-16 0 -24.5 -14.5t-11.5 -26.5z" />
    <glyph glyph-name="FL00C9h" unicode="&#xc9;" horiz-adv-x="396" 
d="M151 675l-63 -63q-3 -4 -8.5 -11t-10.5 -12v1q-14 -15 -27.5 -33t-13.5 -41v-412q0 -15 8.5 -33t21.5 -33.5t29 -26.5t31 -11h138q22 0 45 14t42 35.5t30.5 47t11.5 48.5q0 17 -6.5 20.5t-21.5 3.5q-20 0 -28 -15t-14 -34q-5 -16 -11 -29t-20 -13h-94q-11 0 -18.5 9
t-13 21.5t-8 25.5t-2.5 21v5q0 4 -0.5 9.5t-0.5 13.5v61q0 14 0.5 31t0.5 40l19 17q-1 0 8.5 -5t19.5 -5h7q4 0 7.5 0.5t6.5 0.5q11 0 28.5 -1t28.5 -6q2 -1 5.5 -6.5t6.5 -11.5q6 -10 12.5 -18.5t18.5 -8.5h2q7 0 9.5 1.5t7.5 10.5q0 8 0.5 30t2.5 45q1 24 2 45t1 29v3
q0 12 -4 25.5t-21 13.5q-13 0 -20 -10t-12 -21q-3 -8 -7 -14.5t-10 -6.5h-114l-5 7v134q0 3 2.5 8t6.5 10t8.5 9t7.5 4h94q2 0 8.5 -3.5t8.5 -5.5h-1l46 -48h40v152h-179q-8 0 -19 -4t-19 -10h-1zM305 815q-3 12 -9.5 28t-22.5 16h-15q-5 0 -8 -0.5t-6 -1.5
q-21 -5 -45.5 -28t-40.5 -60v1q-5 -8 -5 -20q0 -18 13.5 -26.5t27.5 -8.5q10 0 13 3q13 7 26 16t24 18t18.5 17t10.5 13z" />
    <glyph glyph-name="FL00CAh" unicode="&#xca;" horiz-adv-x="396" 
d="M151 675l-63 -63q-3 -4 -8.5 -11t-10.5 -12v1q-14 -15 -27.5 -33t-13.5 -41v-412q0 -15 8.5 -33t21.5 -33.5t29 -26.5t31 -11h138q22 0 45 14t42 35.5t30.5 47t11.5 48.5q0 17 -6.5 20.5t-21.5 3.5q-20 0 -28 -15t-14 -34q-5 -16 -11 -29t-20 -13h-94q-11 0 -18.5 9
t-13 21.5t-8 25.5t-2.5 21v5q0 4 -0.5 9.5t-0.5 13.5v61q0 14 0.5 31t0.5 40l19 17q-1 0 8.5 -5t19.5 -5h7q4 0 7.5 0.5t6.5 0.5q11 0 28.5 -1t28.5 -6q2 -1 5.5 -6.5t6.5 -11.5q6 -10 12.5 -18.5t18.5 -8.5h2q7 0 9.5 1.5t7.5 10.5q0 8 0.5 30t2.5 45q1 24 2 45t1 29v3
q0 12 -4 25.5t-21 13.5q-13 0 -20 -10t-12 -21q-3 -8 -7 -14.5t-10 -6.5h-114l-5 7v134q0 3 2.5 8t6.5 10t8.5 9t7.5 4h94q2 0 8.5 -3.5t8.5 -5.5h-1l46 -48h40v152h-179q-8 0 -19 -4t-19 -10h-1zM78 765q0 -32 11 -40t41 -8q12 0 22 9.5t20 22.5q8 10 16 18.5t15 8.5h1
q2 0 8 -5t14 -13q12 -11 26.5 -23t28.5 -18q3 -2 11 -2q12 0 26 8t14 27q0 9 -4 20v-1q-17 37 -41 60t-46 28q-6 2 -13 2h-15q-13 0 -24.5 -0.5t-19.5 -1.5q-12 -4 -24 -13t-23 -21t-21 -25t-18 -25z" />
    <glyph glyph-name="FL00CBh" unicode="&#xcb;" horiz-adv-x="396" 
d="M48 785q0 33 22 54t54 21q31 0 52.5 -21t21.5 -54q0 -30 -21.5 -51t-52.5 -21q-32 0 -54 21t-22 51zM218 784q0 33 22 54t53 21q32 0 54 -21t22 -54q0 -30 -22 -51t-54 -21q-31 0 -53 21t-22 51zM148 672q10 8 22 12.5t20 4.5h179v-152h-40l-46 48h1q-2 2 -8.5 5.5
t-8.5 3.5h-94q-3 0 -7.5 -4t-8.5 -9t-6.5 -10t-2.5 -8v-134l5 -7h114q6 0 10 6.5t7 14.5q5 11 12 21t20 10q17 0 21 -13.5t4 -25.5v-3q0 -8 -1 -29t-2 -45q-2 -23 -2.5 -45t-0.5 -30q-5 -9 -7.5 -10.5t-9.5 -1.5h-2q-12 0 -18.5 8.5t-12.5 18.5q-3 6 -6.5 11.5t-5.5 6.5
q-11 5 -28.5 6t-28.5 1q-3 0 -6.5 -0.5t-7.5 -0.5h-7q-10 0 -19.5 5t-8.5 5l-19 -17q0 -23 -0.5 -40t-0.5 -31v-61q0 -8 0.5 -13.5t0.5 -9.5v-5q0 -8 2.5 -21t8 -25.5t13 -21.5t18.5 -9h94q14 0 20 13t11 29q6 19 14 34t28 15q15 0 21.5 -3.5t6.5 -20.5q0 -23 -11.5 -48.5
t-30.5 -47t-42 -35.5t-45 -14h-138q-15 0 -31 11t-29 26.5t-21.5 33.5t-8.5 33v412q0 23 13.5 41t27.5 33v-1q5 5 10.5 12t8.5 11z" />
    <glyph glyph-name="FL00CCh" unicode="&#xcc;" horiz-adv-x="451" 
d="M57 0h352q18 0 24.5 9.5t6.5 24.5v10q-2 6 -5.5 18.5t-7 26.5t-6.5 26.5t-4 18.5q0 1 -0.5 2.5t-0.5 3.5q-2 10 -6.5 17.5t-16.5 7.5h-7q-6 -7 -17.5 -18.5t-25.5 -22.5t-28.5 -19.5t-25.5 -9.5h-11v421q0 6 4 10.5t9 8.5q6 5 11 11.5t5 15.5q0 11 -8 15.5t-17 4.5
q-23 0 -45.5 -13.5t-40.5 -34t-29.5 -45t-11.5 -46.5v-342q-21 11 -41.5 30t-31.5 32q-1 0 -2 0.5t-4 1.5q-15 0 -19 -8.5t-7 -18.5q0 -1 -0.5 -2t-0.5 -2v2q-2 -5 -5 -17.5t-6.5 -27t-6.5 -28.5t-4 -20v1q-1 -5 -1 -10q0 -15 6.5 -24.5t24.5 -9.5zM409 689h-352
q-18 0 -24.5 -9.5t-6.5 -24.5q0 -5 1 -10q1 -7 4 -20.5t6.5 -28t6.5 -27t5 -16.5v2q0 -2 0.5 -2.5t0.5 -1.5q3 -10 7 -18.5t19 -8.5q4 1 6 1q7 8 18.5 20t25 23t27.5 18.5t25 7.5h111q11 -1 25.5 -9.5t28.5 -20t25.5 -23t17.5 -18.5q-1 0 0.5 0.5t6.5 0.5q12 0 16.5 7.5
t6.5 17.5q0 1 0.5 2.5t0.5 3.5v-1q1 5 4 17.5t6.5 27t7 27.5t5.5 19v10q0 15 -6.5 24.5t-24.5 9.5zM162 776l10 -7q11 -11 29 -27.5t39 -26.5q3 -3 13 -3q14 0 27.5 8.5t13.5 26.5q0 12 -5 20v-1q-16 37 -40.5 60t-46.5 28q-6 2 -13 2h-16q-16 0 -24 -14.5t-11 -26.5z
M82 163l-0.5 0.5t-1.5 2.5q0 -1 2 -3zM80 523l2 2z" />
    <glyph glyph-name="FL00CDh" unicode="&#xcd;" horiz-adv-x="451" 
d="M57 0h352q18 0 24.5 9.5t6.5 24.5v10q-2 6 -5.5 19t-7 27.5t-6.5 27t-4 17.5v-1q0 2 -0.5 3t-0.5 3q-2 10 -6.5 17.5t-16.5 7.5h-7q-6 -7 -17.5 -18.5t-25.5 -22.5t-28.5 -19.5t-25.5 -9.5h-11v421q0 6 4 10.5t9 8.5q6 5 11 11.5t5 15.5q0 11 -8 15.5t-17 4.5
q-23 0 -45.5 -13.5t-40.5 -34t-29.5 -45t-11.5 -46.5v-342q-21 11 -41.5 30t-31.5 32q-1 0 -2 0.5t-4 1.5q-15 0 -19 -8.5t-7 -18.5q0 -1 -0.5 -2t-0.5 -2v2q-2 -5 -5 -17.5t-6.5 -27t-6.5 -28.5t-4 -20v1q-1 -5 -1 -10q0 -15 6.5 -24.5t24.5 -9.5zM409 689h-352
q-18 0 -24.5 -9.5t-6.5 -24.5q0 -5 1 -10q1 -7 4 -20.5t6.5 -28t6.5 -27t5 -16.5v2q0 -2 0.5 -2.5t0.5 -1.5q3 -10 7 -18.5t19 -8.5q4 1 6 1q7 8 18.5 20t25 23t27.5 18.5t25 7.5h111q11 -1 25.5 -9.5t28.5 -20t25.5 -23t17.5 -18.5q-1 0 0.5 0.5t6.5 0.5q12 0 16.5 7.5
t6.5 17.5q0 1 0.5 2.5t0.5 3.5v-1q1 5 4 17.5t6.5 27t7 27.5t5.5 19v10q0 15 -6.5 24.5t-24.5 9.5zM326 811q-3 12 -9.5 28t-22.5 16h-16q-5 0 -13 -2q-22 -5 -46.5 -28t-40.5 -60v1q-5 -8 -5 -20q0 -18 13.5 -26.5t27.5 -8.5q11 0 13 3q13 7 26.5 16t24.5 18t18.5 17
t10.5 13zM82 163l-0.5 0.5t-1.5 2.5q0 -1 2 -3zM80 523l2 2z" />
    <glyph glyph-name="FL00CEh" unicode="&#xce;" horiz-adv-x="451" 
d="M57 0h352q18 0 24.5 9.5t6.5 24.5v10q-2 6 -5.5 18.5t-7 26.5t-6.5 26.5t-4 18.5q0 2 -0.5 3t-0.5 3q-2 10 -6.5 17.5t-16.5 7.5h-7q-6 -7 -17.5 -18.5t-25.5 -22.5t-28.5 -19.5t-25.5 -9.5h-11v421q0 6 4 10.5t9 8.5q6 5 11 11.5t5 16.5q0 11 -8 15t-17 4
q-23 0 -45.5 -13.5t-40.5 -34t-29.5 -45t-11.5 -46.5v-342q-21 11 -41.5 30t-31.5 32q-1 0 -2 0.5t-4 1.5q-15 0 -19 -8.5t-7 -18.5q0 -1 -0.5 -2t-0.5 -2v2q-2 -5 -5 -17.5t-6.5 -27t-6.5 -28.5t-4 -20v1q-1 -5 -1 -10q0 -15 6.5 -24.5t24.5 -9.5zM409 689h-352
q-18 0 -24.5 -9.5t-6.5 -24.5q0 -5 1 -10q1 -7 4 -20.5t6.5 -28t6.5 -27t5 -16.5v2q0 -2 0.5 -2.5t0.5 -1.5q3 -10 7 -18.5t19 -8.5q4 1 6 1q7 8 18.5 20t25 23t27.5 18.5t25 7.5h111q11 -1 25.5 -9.5t28.5 -20t25.5 -23t17.5 -18.5q-1 0 0.5 0.5t6.5 0.5q12 0 16.5 7.5
t6.5 17.5q0 1 0.5 2.5t0.5 3.5v-1q1 5 4 17.5t6.5 27t7 27.5t5.5 19v10q0 15 -6.5 24.5t-24.5 9.5zM99 766q0 -32 11.5 -40t41.5 -8q11 0 21 9t21 21q8 9 16 17t15 8h1q2 0 8 -4.5t16 -12.5q12 -10 27 -21t26 -17q4 -2 12 -2q12 0 26 8t14 27q0 9 -4 20v-1q-17 37 -41 60
t-46 28q-8 2 -13 2h-16q-12 0 -24 -0.5t-20 -1.5q-12 -4 -24 -13t-23 -21t-21 -25t-19 -25zM82 163l-0.5 0.5t-1.5 2.5q0 -1 2 -3zM80 523l2 2z" />
    <glyph glyph-name="FL00CFh" unicode="&#xcf;" horiz-adv-x="451" 
d="M82 525l-2 -2zM82 163q-2 2 -2 3q1 -2 1.5 -2.5zM71 789q0 33 22 54t54 21t54 -21t22 -54q0 -30 -22 -51t-54 -21t-54 21t-22 51zM243 788q0 33 22 54t53 21q32 0 54 -21t22 -54q0 -30 -22 -51t-54 -21q-31 0 -53 21t-22 51zM409 689q18 0 24.5 -9.5t6.5 -24.5v-10
q-2 -6 -5.5 -19t-7 -27.5t-6.5 -27t-4 -17.5v1q0 -2 -0.5 -3.5t-0.5 -2.5q-2 -10 -6.5 -17.5t-16.5 -7.5q-5 0 -6.5 -0.5t-0.5 -0.5q-6 7 -17.5 18.5t-25.5 23t-28.5 20t-25.5 9.5h-111q-11 0 -25 -7.5t-27.5 -18.5t-25 -23t-18.5 -20q-2 0 -6 -1q-15 0 -19 8.5t-7 18.5
q0 1 -0.5 1.5t-0.5 2.5v-2q-2 5 -5 17t-6.5 26.5t-6.5 28t-4 20.5q-1 5 -1 10q0 15 6.5 24.5t24.5 9.5h352zM57 0q-18 0 -24.5 9.5t-6.5 24.5q0 5 1 10v-1q1 6 4 20t6.5 28.5t6.5 27t5 17.5v-1l0.5 1t0.5 2q3 10 7 18.5t19 8.5q3 -1 4 -1.5t2 -0.5q11 -13 31.5 -32t41.5 -30
v342q0 22 11.5 46.5t29.5 45t40.5 34t45.5 13.5q9 0 17 -4t8 -15q0 -10 -5 -16.5t-11 -11.5q-5 -4 -9 -8.5t-4 -10.5v-421h11q11 1 25.5 9.5t28.5 19.5t25.5 22.5t17.5 18.5h7q12 0 16.5 -7.5t6.5 -17.5q0 -2 0.5 -3.5t0.5 -2.5v1q1 -6 4 -19t6.5 -27t7 -26.5t5.5 -18.5v-10
q0 -15 -6.5 -24.5t-24.5 -9.5h-352z" />
    <glyph glyph-name="FL00D0h" unicode="&#xd0;" horiz-adv-x="460" 
d="M109 523l-2 -2zM75 22q0 14 6 20.5t20 14.5v257q-5 -3 -7.5 -8t-5.5 -10q-6 -11 -12.5 -19t-18.5 -8q-7 0 -14.5 2.5t-11.5 11.5l1 149q0 23 5 31.5t13 8.5q10 0 20 -11l20 -22q3 -4 6 -7.5t5 -6.5v16q0 21 11.5 45.5t29.5 45t40.5 34t45.5 13.5q9 0 17 -4t8 -15t-5 -17
t-11 -10v1q-5 -3 -9 -9v-103l47 49q18 0 23 -12t5 -23l1 -147q-3 -8 -10.5 -14t-15.5 -6q-12 0 -18.5 8t-11.5 19q-4 6 -7 11.5t-5 5.5l-4 1l-1 -1h-2l1 -236h51q10 0 18.5 9t13.5 21.5t8 25.5t3 21v16q0 8 0.5 21t0.5 32v159q0 36 -0.5 80t-0.5 98q0 3 -3 8t-7 10.5t-8.5 9
t-7.5 3.5h-93q-11 0 -25 -7.5t-27.5 -18.5t-25 -22.5t-18.5 -19.5q-2 0 -6 -1q-15 0 -19 8.5t-7 17.5q0 1 -0.5 1.5t-0.5 2.5v-2q-2 5 -5 17t-6.5 26.5t-6.5 28t-4 20.5q-1 5 -1 10q0 15 6.5 24.5t24.5 9.5l13 -1h3q1 0 1.5 0.5t2.5 0.5h177q8 0 20 -5t23 -13l59 -59
q3 -4 9 -11t11 -12v1q14 -14 27.5 -32.5t13.5 -40.5v-410q0 -15 -8.5 -33t-21.5 -34t-29.5 -26.5t-31.5 -10.5h-263q-11 0 -13 7t-2 12v3z" />
    <glyph glyph-name="FL00D1h" unicode="&#xd1;" horiz-adv-x="487" 
d="M426 619q0 10 -8 22t-19.5 22.5t-24 17.5t-22.5 7h-107q-15 0 -30 -13.5t-24 -24.5l-2 4h1q-4 12 -10 23t-18 11h-136q0 -20 7.5 -32t17.5 -22h-1q8 -8 14.5 -15t6.5 -18v-517q-12 -11 -20 -23t-8 -32q0 -11 5 -20t19 -9h123q20 0 25.5 11.5t5.5 25.5q0 2 -0.5 4.5
t-0.5 4.5v6q-1 1 -4 5.5t-5 6.5l-10 12t-9 9v488q0 10 8.5 16.5t20.5 10.5t24 5t19 1q14 0 30 -5.5t16 -22.5v-393l-91 -186h171q14 0 25.5 10t21 25.5t17 33t13.5 32.5q2 7 6.5 17t6.5 15q-6 2 -17 2.5t-14 0.5q-19 0 -28.5 -6.5t-17.5 -14.5t-17 -14.5t-27 -6.5h-8l75 82
v444zM405 811q0 32 -9.5 40t-35.5 8q-11 0 -24 -13.5t-24 -28.5q-5 -5 -8.5 -10t-5.5 -8q-11 20 -23.5 31t-24.5 19q-5 5 -13 8t-16 3h-14q-8 0 -16 -0.5t-16 -3.5h1q-11 -3 -22.5 -13.5t-22.5 -24t-20.5 -27.5t-16.5 -26l-4 -8v-6q0 -26 14.5 -30.5t37.5 -4.5h7l59 58
q11 -21 23.5 -31.5t26.5 -18.5l33 -7q12 0 23.5 0.5t16.5 1.5q10 3 19 11.5t17.5 19.5t16 23.5t14.5 24.5q1 2 1.5 2.5t1.5 2.5z" />
    <glyph glyph-name="FL00D2h" unicode="&#xd2;" horiz-adv-x="431" 
d="M178 583q-13 0 -36.5 -7t-47 -18.5t-41 -26.5t-17.5 -31v-402q0 -17 10.5 -33t25.5 -29.5t32.5 -23t31.5 -12.5h43l9 -1q37 0 66 7t53 21t45 36.5t41 53.5v-1q8 13 15.5 32t7.5 35v368q0 24 -11.5 48.5t-30.5 44.5t-42 32.5t-46 12.5h-154q-15 0 -30.5 -11.5t-29.5 -28.5
t-25 -36t-17 -33l-1 -12v-5q0 -9 3 -14.5t14 -5.5q14 0 27 8t24 16h-1l16.5 11t10.5 6q20 8 40 9.5t44 1.5h9l36 -1q10 -3 21 -13t11 -18v-403q0 -38 -14 -58t-53 -20q-11 0 -23 2.5t-21.5 8.5t-15.5 15.5t-6 23.5v374q0 7 4.5 13.5t9.5 13.5q8 9 14.5 19.5t6.5 22.5z
M152 780l10 -7q11 -11 29 -27.5t39 -26.5q3 -3 13 -3q14 0 27 8.5t13 26.5q0 6 -0.5 10.5t-3.5 9.5v-1q-16 37 -40.5 60t-46.5 28q-3 1 -5.5 1.5t-7.5 0.5h-16q-16 0 -24 -14.5t-11 -26.5z" />
    <glyph glyph-name="FL00D3h" unicode="&#xd3;" horiz-adv-x="431" 
d="M178 583q-13 0 -36.5 -7t-47 -18.5t-41 -26.5t-17.5 -31v-402q0 -17 10 -33t25 -29.5t32.5 -23t31.5 -12.5l11 -1h43q36 0 65 7t53 21t45 36.5t41 53.5v-1q8 13 15.5 32t7.5 35v368q0 24 -11.5 48.5t-30.5 44.5t-42 32.5t-46 12.5h-154q-15 0 -30.5 -12t-29.5 -29
t-25 -35.5t-17 -32.5l-1 -12v-5q0 -9 3 -14.5t14 -5.5q14 0 27 8t24 16h-1l16.5 11t10.5 6q20 8 40 9.5t44 1.5l36 -1h9q10 -3 21 -13t11 -18v-403q0 -38 -14 -58t-53 -20q-11 0 -23 2.5t-21.5 8.5t-15.5 15.5t-6 23.5v374q0 7 4.5 13.5t9.5 13.5q8 9 14.5 19.5t6.5 22.5z
M306 817q-3 12 -11.5 26.5t-24.5 14.5h-15q-5 0 -8 -0.5t-6 -1.5q-22 -5 -46 -28t-40 -60v1q-5 -8 -5 -20q0 -18 13 -26.5t27 -8.5q11 0 14 3q20 10 38.5 26.5t29.5 27.5l10 7z" />
    <glyph glyph-name="FL00D4h" unicode="&#xd4;" horiz-adv-x="431" 
d="M178 583q-13 0 -36.5 -7t-47 -18.5t-41 -26.5t-17.5 -31v-402q0 -17 10.5 -33t25.5 -29.5t32.5 -23t31.5 -12.5h11q5 0 9 -0.5t8 -0.5h25q36 0 65 7t53 21t45 36.5t41 53.5v-1q9 13 16 32t7 35v368q0 24 -11.5 48.5t-30.5 44.5t-42 32.5t-46 12.5h-154q-15 0 -30.5 -11.5
t-29.5 -28.5t-25 -36t-17 -33q0 -2 -0.5 -3.5t-0.5 -3.5v-11q0 -8 3 -13.5t14 -5.5q14 0 27 8t24 16h-1l16.5 11t10.5 6q20 8 40 9.5t44 1.5h9q3 0 6.5 -0.5t7.5 -0.5h22q10 -3 21 -13t11 -18v-403q0 -38 -14 -58t-53 -20q-11 0 -23 2.5t-21.5 8.5t-15.5 15.5t-6 23.5v374
q0 7 4.5 13.5t9.5 13.5q8 9 14.5 19.5t6.5 22.5zM89 765q0 -32 11 -40t41 -8q12 0 22.5 11t21.5 24q9 11 17.5 20t14.5 9h1q1 0 6.5 -5.5l13.5 -13.5q11 -11 24.5 -24t29.5 -21q4 -2 12 -2q12 0 26 8t14 27q0 10 -5 20v-1q-16 37 -40 60t-46 28q-3 1 -6 1.5t-8 0.5h-15
q-12 0 -24 -0.5t-20 -1.5q-12 -4 -24 -13t-23 -21t-21 -25t-19 -25z" />
    <glyph glyph-name="FL00D5h" unicode="&#xd5;" horiz-adv-x="431" 
d="M178 583q-13 0 -36.5 -7t-47 -18.5t-41 -26.5t-17.5 -31v-402q0 -17 10.5 -33t25.5 -29.5t32.5 -23t31.5 -12.5h43l9 -1q37 0 66 7t53 21t45 36.5t41 53.5v-1q8 13 15.5 32t7.5 35v368q0 24 -11.5 48.5t-30.5 44.5t-42 32.5t-46 12.5h-154q-15 0 -30.5 -11.5t-29.5 -28.5
t-25 -36t-17 -33l-1 -17q0 -9 3 -14.5t14 -5.5q14 0 27 8t24 16h-1l16.5 11t10.5 6q20 8 40 9.5t44 1.5h46q10 -5 20.5 -14.5t10.5 -17.5v-403q0 -38 -14 -58t-53 -20q-11 0 -23 2.5t-21.5 8.5t-15.5 15.5t-6 23.5v374q0 7 4.5 13.5t9.5 13.5q8 9 14.5 19.5t6.5 22.5z
M376 811q0 32 -9.5 40t-34.5 8q-12 0 -25 -13.5t-24 -28.5q-4 -5 -7.5 -10t-6.5 -8q-11 20 -23.5 31t-23.5 19q-5 5 -13 8t-16 3h-14q-8 0 -16 -0.5t-16 -3.5h1q-11 -3 -22 -13.5t-22 -24t-21 -27.5t-17 -26l-3 -8v-6q0 -26 14 -30.5t37 -4.5h7l59 58q11 -21 23.5 -31.5
t26.5 -18.5l32 -7q13 0 24 0.5t17 1.5q9 3 18 11.5t17.5 19.5t16 23.5t14.5 24.5q1 2 1.5 2.5t1.5 2.5z" />
    <glyph glyph-name="FL00D6h" unicode="&#xd6;" horiz-adv-x="431" 
d="M59 790q0 33 21.5 54t54.5 21q31 0 53 -21t22 -54q0 -30 -22 -51t-53 -21q-33 0 -54.5 21t-21.5 51zM230 789q0 33 21.5 54t53.5 21t54 -21t22 -54q0 -30 -22 -51t-54 -21t-53.5 21t-21.5 51zM186 575q0 -12 -6.5 -22.5t-14.5 -19.5q-5 -7 -9.5 -13.5t-4.5 -13.5v-374
q0 -14 6 -23.5t15.5 -15.5t21.5 -8.5t23 -2.5q39 0 53 20t14 58v403q0 8 -11 18t-21 13h-22q-4 0 -7.5 0.5t-6.5 0.5h-9q-24 0 -44 -1.5t-40 -9.5q-3 -1 -10.5 -6t-16.5 -10h1q-11 -8 -24 -16.5t-27 -8.5q-11 0 -14 5.5t-3 13.5v11q0 2 0.5 3.5t0.5 3.5q6 14 17 33t25 36
t29.5 28.5t30.5 11.5h154q23 0 46 -12.5t42 -32.5t30.5 -44.5t11.5 -48.5v-368q0 -16 -7 -35t-16 -32v1q-20 -31 -41 -53.5t-45 -36.5t-53 -21t-65 -7h-25q-4 0 -8 0.5t-9 0.5h-11q-14 3 -31.5 12.5t-32.5 23t-25.5 29.5t-10.5 33v402q0 16 17.5 31t41 26.5t47 18.5t36.5 7z
" />
    <glyph glyph-name="FL00D7h" unicode="&#xd7;" horiz-adv-x="327" 
d="M180 279q0 2 -2 6t-6 9l-7 -13q-5 -5 -6 -10t-1 -9q0 -8 -1.5 -15.5t-9.5 -15.5q-6 -6 -14 -6q-7 0 -10 2l-75 76q-12 12 -12 17t3 8l8 4q5 5 15 7t20 3q6 1 11 1.5t7 2.5l-1 -1l10 15l-18 15q-1 1 -2 1t-2 1l-34 -7q-26 0 -26 27q0 9 3 11l81 83q7 6 12.5 9.5t11.5 3.5
q5 0 8 -2t7 -5q5 -7 6 -16t1 -21v-14q0 -10 -1 -9l14 -16l11 10l14 48q2 7 4 9q6 6 12 6t12 -6l78 -78q3 -3 3 -9q0 -7 -8 -13q-13 -12 -28 -12q-8 0 -14 -3l-4 -2v-2l-16 -12l7 -5l63 -6q13 -1 13 -15q0 -15 -12 -25h1l-89 -89q-8 -2 -16 -2q-12 0 -16 6l1 -1q-9 9 -9 26z
" />
    <glyph glyph-name="FL00D8h" unicode="&#xd8;" horiz-adv-x="431" 
d="M178 580q-13 0 -36.5 -7t-47 -18.5t-41 -26.5t-17.5 -31v-399q0 -17 10.5 -33t25.5 -29.5t32.5 -23t31.5 -12.5h57q36 0 64 6.5t52 21t44 36.5t40 52v-1q8 13 15.5 32t7.5 35v366q0 24 -11.5 48.5t-30.5 44.5t-42 32.5t-46 12.5h-154q-15 0 -30.5 -11.5t-29.5 -28.5
t-25 -35.5t-17 -32.5l-1 -12v-6q0 -9 3 -14.5t14 -5.5q14 0 27 8.5t24 16.5h-1q9 6 16.5 10.5t10.5 5.5q20 8 40 9.5t44 1.5h46q13 -7 25 -20l-127 -247v178q0 8 4.5 14.5t9.5 13.5q8 8 14.5 18.5t6.5 23.5zM217 82q-14 0 -29.5 3.5t-25.5 14.5l122 235v-176
q0 -38 -14 -57.5t-53 -19.5z" />
    <glyph glyph-name="FL00D9h" unicode="&#xd9;" horiz-adv-x="487" 
d="M76 70q0 -10 7.5 -22.5t19 -23t24.5 -17.5t24 -7h105q14 0 29.5 13.5t23.5 23.5q1 -1 1 -2t1 -2q4 -11 8.5 -22t20.5 -11h136q0 21 -8 32t-18 21q-7 7 -13 15t-6 19v516l3 3q11 11 18.5 22t7.5 30q0 11 -4.5 21t-20.5 10h-129q-20 0 -25.5 -11.5t-5.5 -26.5
q0 -2 0.5 -3.5t0.5 -3.5v-5q2 -8 15 -18.5t21 -15.5v-487q0 -11 -9 -18t-21 -11t-24.5 -5.5t-18.5 -1.5q-7 0 -15.5 1t-15.5 4t-11.5 8.5t-4.5 14.5v394l91 185h-171q-14 0 -25 -10t-20.5 -25t-16.5 -32t-13 -32q-1 -3 -5 -11l-7 -14t-3 -7q5 -2 16.5 -4t14.5 -2
q18 0 28.5 6.5t18.5 14.5q7 8 16.5 15t26.5 7h8l-75 -82v-443zM198 779l10 -7q11 -11 29 -27.5t39 -26.5q3 -3 14 -3q14 0 27 8.5t13 26.5q0 12 -4 20v-1q-17 37 -41 60t-46 28q-3 1 -6 1.5t-8 0.5h-15q-17 0 -25 -14.5t-11 -26.5z" />
    <glyph glyph-name="FL00DAh" unicode="&#xda;" horiz-adv-x="487" 
d="M76 70q0 -10 7.5 -22.5t19 -23t24.5 -17.5t24 -7h105q14 0 29.5 13.5t23.5 23.5q1 -1 1 -2t1 -2q4 -11 8.5 -22t20.5 -11h136q0 21 -8 32t-18 21q-7 7 -13 15t-6 19v516l3 3q11 11 18.5 22t7.5 30q0 11 -4.5 21t-20.5 10h-129q-20 0 -25.5 -11.5t-5.5 -26.5
q0 -2 0.5 -3.5t0.5 -3.5v-5q2 -8 15 -18.5t21 -15.5v-487q0 -11 -9 -18t-21 -11t-24.5 -5.5t-18.5 -1.5q-7 0 -15.5 1t-15.5 4t-11.5 8.5t-4.5 14.5v394l91 185h-171q-14 0 -25 -10t-20.5 -25t-16.5 -32t-13 -32q-1 -3 -5 -11l-7 -14t-3 -7q5 -2 16.5 -4t14.5 -2
q18 0 28.5 6.5t18.5 14.5q7 8 16.5 15t26.5 7h8l-75 -82v-443zM344 815q-3 12 -9.5 28t-22.5 16h-15q-5 0 -8 -0.5t-6 -1.5q-22 -5 -46.5 -28t-40.5 -60v1q-5 -8 -5 -20q0 -18 13.5 -26.5t27.5 -8.5q11 0 13 3q13 7 26.5 16t24.5 18t19 17t11 13z" />
    <glyph glyph-name="FL00DBh" unicode="&#xdb;" horiz-adv-x="487" 
d="M76 70q0 -10 7.5 -22.5t19 -23t24.5 -17.5t24 -7h105q14 0 29.5 13.5t23.5 23.5q1 -1 1 -2t1 -2q4 -11 8.5 -22t20.5 -11h136q0 21 -8 32t-18 21q-7 7 -13 15t-6 19v516l3 3q11 11 18.5 22t7.5 30q0 11 -4.5 21t-20.5 10h-129q-20 0 -25.5 -11.5t-5.5 -26.5
q0 -2 0.5 -3.5t0.5 -3.5v-5q2 -8 15 -18.5t21 -15.5v-487q0 -11 -9 -18t-21 -11t-24.5 -5.5t-18.5 -1.5q-7 0 -15.5 1t-15.5 4t-11.5 8.5t-4.5 14.5v394l91 185h-171q-14 0 -25 -10t-20.5 -25t-16.5 -32t-13 -32q-1 -3 -5 -11l-7 -14t-3 -7q5 -2 16.5 -4t14.5 -2
q18 0 28.5 6.5t18.5 14.5q7 8 16.5 15t26.5 7h8l-75 -82v-443zM125 765q0 -32 11 -40t42 -8q11 0 21.5 9.5t19.5 22.5q8 10 16.5 18.5t15.5 8.5h1q2 0 8 -5t14 -13q13 -11 27 -23t28 -18q4 -2 12 -2q12 0 26.5 8t14.5 27q0 10 -5 20v-1q-16 37 -40.5 60t-46.5 28
q-3 1 -6 1.5t-8 0.5h-15q-13 0 -25 -0.5t-20 -1.5q-12 -4 -23.5 -13t-22.5 -21t-21 -25t-19 -25z" />
    <glyph glyph-name="FL00DCh" unicode="&#xdc;" horiz-adv-x="487" 
d="M95 790q0 33 22 54t54 21t53.5 -21t21.5 -54q0 -30 -21.5 -51t-53.5 -21t-54 21t-22 51zM267 789q0 33 21.5 54t53.5 21t54 -21t22 -54q0 -30 -22 -51t-54 -21t-53.5 21t-21.5 51zM76 514l75 81h-8q-17 0 -26.5 -7t-16.5 -15q-8 -8 -18.5 -14.5t-28.5 -6.5q-3 0 -14.5 2
t-16.5 4q0 1 3 7l7 14t5 11q6 15 13 32t16.5 32t20.5 25t25 10h171l-91 -185v-394q0 -9 4.5 -14.5t11.5 -8.5t15.5 -4t15.5 -1q6 0 18.5 1.5t24.5 5.5t21 11t9 18v487q-8 5 -21 15.5t-15 18.5v5q0 2 -0.5 3.5t-0.5 3.5q0 16 5.5 27t25.5 11h129q16 0 20.5 -10t4.5 -21
q0 -19 -7.5 -30t-18.5 -22l-3 -3v-516q0 -11 6 -19t13 -15q10 -10 18 -21t8 -32h-136q-16 0 -20.5 11t-8.5 22q-1 1 -1 2t-1 2q-8 -10 -23.5 -23.5t-29.5 -13.5h-105q-11 0 -24 7t-24.5 17.5t-19 23t-7.5 22.5v444z" />
    <glyph glyph-name="FL00DDh" unicode="&#xdd;" horiz-adv-x="470" 
d="M75 304q8 -30 23 -44q-9 -6 -16.5 -18t-13.5 -25.5t-9.5 -27t-3.5 -24.5v-7q0 -5 -0.5 -12t-0.5 -14q0 -13 0.5 -22.5t4.5 -13.5q-1 1 -0.5 -1t2.5 -4v1q4 -8 13.5 -23.5t30 -30.5t55 -26.5t89.5 -11.5h106q10 0 22.5 7t24 17.5t19.5 23t8 22.5v531q0 1 1 2
q12 11 20.5 23.5t8.5 31.5q0 11 -4.5 21t-20.5 10h-128q-20 0 -25.5 -11.5t-5.5 -26.5q0 -2 0.5 -3.5t0.5 -3.5v-5q2 -3 6.5 -9.5t8.5 -11.5h-1q3 -3 6.5 -7.5t7.5 -7.5v-252q0 -10 -8 -16.5t-19 -10t-22.5 -4.5t-17.5 -1q-14 0 -30 5t-16 23l1 157l91 185h-171
q-14 0 -25 -10t-20.5 -25t-16.5 -32t-13 -32q-1 -3 -5 -11l-7 -14t-3 -7q5 -2 16.5 -4t14.5 -2q18 0 28.5 6.5t18.5 14.5q7 8 16.5 15t26.5 7h8l-75 -82zM256 237q14 0 27.5 12.5t23.5 23.5l2.5 -5t4.5 -8v-150q0 -9 -6.5 -11.5t-15.5 -2.5h-12q-4 0 -7 0.5t-6 0.5
q-11 0 -32 5t-41.5 14.5t-35.5 24t-15 33.5q0 6 1 10q4 15 4 31q0 13 -4 22h6h106zM336 815q-3 12 -9.5 28t-22.5 16h-15q-5 0 -8 -0.5t-6 -1.5q-22 -5 -46.5 -28t-40.5 -60v1q-5 -8 -5 -20q0 -18 13.5 -26.5t27.5 -8.5q11 0 13 3q13 7 26.5 16t24.5 18t18.5 17t10.5 13z
" />
    <glyph glyph-name="FL00DEh" unicode="&#xde;" horiz-adv-x="469" 
d="M195 127l-6 123l103 93q17 15 32 32t15 40q0 9 -5 20.5t-16 11.5h-134q-2 0 -3 -1v-357l51 -89h-142q-14 0 -19 11t-9 22q-2 5 -3.5 10t-3.5 8v549q-4 4 -7.5 9.5t-8.5 11.5q-2 2 -5 5.5t-5 5.5l-2 4v5q0 2 -0.5 3.5t-0.5 3.5q0 15 5.5 26.5t25.5 11.5h128q14 0 19 -10
t5 -21q0 -19 -7.5 -30.5t-19.5 -23.5l-2 -2v-58h155q22 0 43.5 -9.5t38.5 -25t27 -36.5t10 -44q0 -44 -22.5 -73t-51.5 -55h1q-2 -2 -4.5 -4l-2.5 -2l2 1q-2 -2 -3.5 -2.5t-2.5 -1.5z" />
    <glyph glyph-name="FL00DFh" unicode="&#xdf;" horiz-adv-x="421" 
d="M348 611q3 -4 9 -11t11 -12v1q14 -14 27.5 -32.5t13.5 -40.5v-412q0 -15 -8.5 -33t-21.5 -33.5t-29 -26.5t-31 -11h-62q-48 0 -68.5 12t-20.5 26q0 15 17 27t44 12h18q10 0 18 9t13.5 21.5t8 26t2.5 21.5v5q0 4 0.5 9.5t0.5 12.5v66q0 18 -0.5 30.5t-0.5 20.5v16l-19 16
l-6 -3t-13 -5q-1 -4 -9 -7q-5 -1 -8 -6.5t-6 -11.5q-6 -11 -12.5 -19t-18.5 -8h-2q-7 0 -10 1.5t-7 9.5l-6 149v3q0 12 4.5 26t24.5 14l49 -52h32l7 6v134q0 3 -2.5 8t-6.5 10.5t-8.5 9t-8.5 3.5h-94h-9t-7 1l-5 -663q-14 -18 -30.5 -32t-35.5 -14q-12 0 -24.5 6.5
t-26.5 23.5v707l71 67l145 -1q7 0 19.5 -4.5t22.5 -12.5z" />
    <glyph glyph-name="FL00E0h" unicode="&#xe0;" 
d="M70 618v-443l66 -81h-4h-4q-18 0 -25.5 6t-14.5 14q-8 9 -16.5 15t-25.5 6q-5 0 -7.5 -0.5t-4.5 -1.5q-3 -1 -8 -1h-5q7 -13 9 -20t6 -17q5 -14 11 -31t14.5 -31t19 -23.5t24.5 -9.5h162l-82 184v133q11 2 17 3t10.5 1.5t7.5 0.5h9h7q3 0 6.5 0.5t5.5 0.5h41
q5 0 8.5 -0.5t7.5 -1.5v-236q-8 -6 -17 -18t-11 -17v-4q0 -2 -0.5 -4.5t-0.5 -4.5q0 -14 5.5 -26t25.5 -12h120q16 0 20.5 9.5t4.5 20.5q0 20 -8.5 32t-20.5 23v517q0 12 4.5 19t9.5 15q7 9 12.5 19.5t5.5 32.5l-122 1q-15 0 -20 -11t-9 -24q-1 -2 -1 -5q-10 12 -24.5 26
t-29.5 14h-105q-11 0 -24 -7t-24 -17.5t-18.5 -23t-7.5 -22.5zM185 578q0 17 16 22.5t31 5.5q6 0 18.5 -1t24.5 -5t21 -10.5t9 -16.5v-150l-119 -1l-1 1v155zM175 778l9 -7q11 -11 29.5 -27.5t39.5 -26.5q3 -3 13 -3q14 0 27.5 8.5t13.5 26.5q0 12 -5 20v-1q-16 37 -40.5 60
t-46.5 28q-8 2 -13 2h-16q-16 0 -24.5 -14.5t-10.5 -26.5z" />
    <glyph glyph-name="FL00E1h" unicode="&#xe1;" 
d="M70 618v-443l66 -81h-4h-4q-18 0 -25.5 6t-14.5 14q-8 9 -16.5 15t-25.5 6q-5 0 -7.5 -0.5t-4.5 -1.5q-3 -1 -8 -1h-5q7 -13 9 -20t6 -17q5 -14 11 -31t14.5 -31t19 -23.5t24.5 -9.5h162l-82 184v133q11 2 17 3t10.5 1.5t7.5 0.5h9h7q3 0 6.5 0.5t5.5 0.5h41
q5 0 8.5 -0.5t7.5 -1.5v-236q-8 -6 -17 -18t-11 -17v-4q0 -2 -0.5 -4.5t-0.5 -4.5q0 -14 5.5 -26t25.5 -12h120q16 0 20.5 9.5t4.5 20.5q0 20 -8.5 32t-20.5 23v517q0 11 4.5 18.5t9.5 15.5q7 9 12.5 19.5t5.5 32.5l-122 1q-15 0 -20 -11.5t-9 -23.5q-1 -2 -1 -5
q-10 12 -24.5 26t-29.5 14h-105q-11 0 -24 -7t-24 -17.5t-18.5 -23t-7.5 -22.5zM185 578q0 17 16 22.5t31 5.5q6 0 18.5 -1t24.5 -5t21 -10.5t9 -16.5v-150l-119 -1l-1 1v155zM340 810q-3 12 -9.5 28t-22.5 16h-16q-5 0 -13 -2q-22 -5 -46.5 -28t-40.5 -60v1q-5 -8 -5 -20
q0 -18 13.5 -26.5t27.5 -8.5q10 0 13 3q13 7 26.5 16t24 18t18.5 17t11 13z" />
    <glyph glyph-name="FL00E2h" unicode="&#xe2;" 
d="M70 618v-443l66 -81h-4h-4q-18 0 -25.5 6t-14.5 14q-8 9 -16.5 15t-25.5 6q-5 0 -7.5 -0.5t-4.5 -1.5q-3 -1 -8 -1h-5q7 -13 9 -20t6 -17q5 -14 11 -31t14.5 -31t19 -23.5t24.5 -9.5h162l-82 184v133q11 2 17 3t10.5 1.5t7.5 0.5h9h7q3 0 6.5 0.5t5.5 0.5h41
q5 0 8.5 -0.5t7.5 -1.5v-236q-8 -6 -17 -18t-11 -17v-4q0 -2 -0.5 -4.5t-0.5 -4.5q0 -14 5.5 -26t25.5 -12h120q16 0 20.5 9.5t4.5 20.5q0 20 -8.5 32t-20.5 23v517q0 12 4.5 19t9.5 15q7 9 12.5 19.5t5.5 32.5l-122 1q-15 0 -20 -11t-9 -24q-1 -2 -1 -5q-10 12 -24.5 26
t-29.5 14h-105q-11 0 -24 -7t-24 -17.5t-18.5 -23t-7.5 -22.5zM117 763q0 -32 11 -40t42 -8q11 0 21 9t20 21q8 9 16 17t16 8h1q3 0 23 -17q13 -10 28 -20.5t26 -17.5q4 -2 12 -2q12 0 26 8t14 27q0 10 -5 20v-1q-16 37 -40 60t-46 28q-3 1 -6 1.5t-8 0.5h-15
q-13 0 -25 -0.5t-20 -1.5q-12 -4 -23.5 -13t-22.5 -21t-21 -25t-19 -25zM185 578q0 17 16 22.5t31 5.5q6 0 18.5 -1t24.5 -5t21 -10.5t9 -16.5v-150l-119 -1l-1 1v155z" />
    <glyph glyph-name="FL00E3h" unicode="&#xe3;" 
d="M70 619v-444l66 -81h-4h-4q-18 0 -25.5 6t-14.5 14q-8 9 -16.5 15t-25.5 6q-5 0 -7.5 -0.5t-4.5 -1.5q-3 -1 -8 -1h-5q7 -13 9 -20t6 -17q5 -14 11 -31t14.5 -31t19 -23.5t24.5 -9.5h162l-82 184v133q11 2 17 3t10.5 1.5t7.5 0.5h9h7q3 0 6.5 0.5t5.5 0.5h41
q5 0 8.5 -0.5t7.5 -1.5v-236q-8 -6 -17 -18t-11 -17v-4q0 -2 -0.5 -4.5t-0.5 -4.5q0 -14 5.5 -26t25.5 -12h120q16 0 20.5 9.5t4.5 20.5q0 20 -8.5 32t-20.5 23v517q0 12 4.5 19t9.5 15q7 9 12.5 19.5t5.5 32.5l-122 1q-15 0 -20 -11t-9 -24q-1 -2 -1 -5q-10 12 -24.5 26
t-29.5 14h-105q-11 0 -24 -7t-24 -17.5t-18.5 -22.5t-7.5 -22zM406 813q0 32 -9.5 40t-34.5 8q-12 0 -25 -13.5t-24 -28.5q-4 -5 -7.5 -10t-6.5 -8q-11 20 -23.5 31t-23.5 19q-5 5 -13 8t-16 3h-15q-7 0 -15 -0.5t-16 -3.5h1q-11 -3 -22.5 -13.5t-22.5 -24t-20.5 -27.5
t-16.5 -26l-4 -8v-6q0 -26 14.5 -30.5t37.5 -4.5h7l58 58q12 -21 24.5 -31.5t26.5 -18.5l32 -7q13 0 24 0.5t17 1.5q9 3 18 11.5t17.5 19.5t16 23.5t14.5 24.5q1 2 1.5 2.5t1.5 2.5zM185 578q0 17 16 22.5t31 5.5q6 0 18.5 -1t24.5 -5t21 -10.5t9 -16.5v-150l-119 -1l-1 1
v155z" />
    <glyph glyph-name="FL00E4h" unicode="&#xe4;" 
d="M90 795q0 33 22 54t54 21q31 0 53 -21t22 -54q0 -30 -22 -51t-53 -21q-32 0 -54 21t-22 51zM261 794q0 33 22 54t54 21t54 -21t22 -54q0 -30 -22 -51t-54 -21t-54 21t-22 51zM185 423l1 -1l119 1v150q0 10 -9 16.5t-21 10.5t-24.5 5t-18.5 1q-15 0 -31 -5.5t-16 -22.5
v-155zM136 94l-66 81v444q0 10 7.5 22t18.5 22.5t24 17.5t24 7h105q15 0 29.5 -14t24.5 -26q0 3 1 5q4 13 9 24t20 11l122 -1q0 -22 -5.5 -32.5t-12.5 -19.5q-5 -7 -9.5 -14.5t-4.5 -19.5v-517q12 -11 20.5 -23t8.5 -32q0 -11 -4.5 -20.5t-20.5 -9.5h-120q-20 0 -25.5 12
t-5.5 26q0 2 0.5 4.5t0.5 4.5v4q2 5 11 17t17 18v236q-4 1 -7.5 1.5t-8.5 0.5h-41q-2 0 -5.5 -0.5t-6.5 -0.5h-7h-9q-3 0 -7.5 -0.5t-10.5 -1.5t-17 -3v-133l82 -184h-162q-14 0 -24.5 9.5t-19 23.5t-14.5 31t-11 31q-4 10 -6 17t-9 20h5q5 0 8 1q2 1 4.5 2t7.5 1
q17 0 25.5 -6.5t16.5 -15.5q7 -8 14.5 -14t25.5 -6h4h4z" />
    <glyph glyph-name="FL00E5h" unicode="&#xe5;" 
d="M173 793q0 33 22 54t54 21q31 0 53 -21t22 -54q0 -30 -22 -51t-53 -21q-32 0 -54 21t-22 51zM185 423l1 -1l119 1v150q0 10 -9 16.5t-21 10.5t-24.5 5t-18.5 1q-15 0 -31 -5.5t-16 -22.5v-155zM136 94l-66 81v444q0 10 7.5 22t18.5 22.5t24 17.5t24 7h105q15 0 29.5 -14
t24.5 -26q0 3 1 5q4 13 9 24t20 11l122 -1q0 -22 -5.5 -32.5t-12.5 -19.5q-5 -8 -9.5 -15t-4.5 -19v-517q12 -11 20.5 -23t8.5 -32q0 -11 -4.5 -20.5t-20.5 -9.5h-120q-20 0 -25.5 12t-5.5 26q0 2 0.5 4.5t0.5 4.5v4q2 5 11 17t17 18v236q-4 1 -7.5 1.5t-8.5 0.5h-41
q-2 0 -5.5 -0.5t-6.5 -0.5h-7h-9q-3 0 -7.5 -0.5t-10.5 -1.5t-17 -3v-133l82 -184h-162q-14 0 -24.5 9.5t-19 23.5t-14.5 31t-11 31q-4 10 -6 17t-9 20h5q5 0 8 1q2 1 4.5 2t7.5 1q17 0 25.5 -6.5t16.5 -15.5q7 -8 14.5 -14t25.5 -6h4h4z" />
    <glyph glyph-name="FL00E6h" unicode="&#xe6;" horiz-adv-x="778" 
d="M189 422l1 -1l120 1v150q0 10 -9 16.5t-21 10t-24.5 4.5t-19.5 1q-15 0 -31 -5t-16 -22v-155zM72 617q0 10 7.5 22t19 22.5t24.5 17.5t24 7h107q15 0 30 -14t24 -26q0 3 1 5q4 12 9.5 23.5t20.5 11.5l124 -1q0 -22 -6 -32.5t-13 -19.5q-5 -8 -9 -15t-4 -19v-26l12 12
q14 15 22 25l60 58q10 8 22.5 13t20.5 5h183v-151h-40l-48 47h1q-2 2 -8.5 5.5t-8.5 3.5h-96q-4 0 -8.5 -3.5t-8.5 -9t-6.5 -10.5t-2.5 -8v-133l6 -7h116q6 0 10 6.5t8 14.5q5 11 11.5 21t20.5 10q17 0 21 -13.5t4 -25.5v-3q0 -8 -0.5 -29t-1.5 -44q-2 -24 -2.5 -46
t-0.5 -30q-5 -8 -8 -9.5t-10 -1.5h-2q-13 0 -19 8t-12 19q-4 6 -7.5 11.5t-5.5 6.5q-11 5 -29 6t-30 1q-3 0 -6.5 -0.5t-6.5 -0.5h-7q-11 0 -21 4.5t-9 4.5l-19 -16q0 -23 -0.5 -40t-0.5 -31v-61q0 -8 0.5 -13.5t0.5 -9.5v-5q0 -8 2.5 -21t8 -25.5t13.5 -21.5t19 -9h96
q14 0 20.5 13.5t11.5 28.5q6 20 14.5 34.5t28.5 14.5q16 0 22.5 -3.5t6.5 -19.5q0 -23 -12 -48.5t-31 -47t-43 -35.5t-47 -14h-141q-18 0 -36 13q-5 -13 -23 -13h-123q-20 0 -25.5 12t-5.5 26q0 2 0.5 4.5t0.5 4.5v4q2 5 11.5 16.5t16.5 18.5v235q-4 1 -15 1h-42h-12h-8h-9
q-3 0 -7.5 -0.5t-10.5 -1.5t-17 -3v-133l83 -183h-164q-14 0 -25 9.5t-19.5 23.5t-15 31t-11.5 31q-4 9 -6 16t-8 20h5t7 1q2 1 4.5 2t8.5 1q17 0 25.5 -6.5t16.5 -15.5q7 -7 15 -13t26 -6h4h4l-67 80v442z" />
    <glyph glyph-name="FL00E7h" unicode="&#xe7;" horiz-adv-x="400" 
d="M209 -114l-39 -5q-8 -1 -12.5 -2t-8.5 -3q-5 -2 -10 -3t-16 -1h-2q-7 0 -10 1.5t-7 10.5l-3 76q0 14 2.5 18.5t8.5 4.5t9 -3h-1q7 0 15.5 -2.5t16.5 -4.5v1l17 -5l32 8l-2 23h-77q-15 0 -31 11t-29 26.5t-21.5 33.5t-8.5 33v412q0 22 12.5 40.5t26.5 32.5v-1q5 5 11 13
l6 8l63 62q11 8 23 13t20 5h179v-153h-40l-47 49h1q-2 2 -8 5t-8 3h-94q-3 0 -7.5 -4t-8.5 -9t-7 -10.5t-3 -8.5q-1 -5 -1 -11v-11v-315q0 -19 0.5 -32t0.5 -21v-16q0 -8 3 -21.5t8 -26t13 -21.5t19 -9h93q14 0 20.5 13.5t11.5 29.5q6 19 14 34t28 15q15 0 21.5 -3.5
t6.5 -20.5q0 -20 -8.5 -41t-22 -40t-31.5 -34t-36 -23v-105q1 -4 2 -6q0 -9 -11 -16t-20 -7z" />
    <glyph glyph-name="FL00E8h" unicode="&#xe8;" horiz-adv-x="396" 
d="M151 675l-63 -63q-3 -4 -8.5 -11t-10.5 -12v1q-14 -15 -27.5 -33t-13.5 -41v-412q0 -15 8.5 -33t21.5 -33.5t29 -26.5t31 -11h138q22 0 45 14t42 35.5t30.5 47t11.5 48.5q0 17 -6.5 20.5t-21.5 3.5q-20 0 -28 -15t-14 -34q-5 -16 -11 -29t-20 -13h-94q-11 0 -18.5 9
t-13 21.5t-8 25.5t-2.5 21v5q0 4 -0.5 9.5t-0.5 13.5v61q0 14 0.5 31t0.5 40l19 17q-1 0 8.5 -5t19.5 -5h7q4 0 7.5 0.5t6.5 0.5q11 0 28.5 -1t28.5 -6q2 -1 5.5 -6.5t6.5 -11.5q6 -10 12.5 -18.5t18.5 -8.5h2q7 0 9.5 1.5t7.5 10.5q0 8 0.5 30t2.5 45q1 24 2 45t1 29v3
q0 12 -4 25.5t-21 13.5q-13 0 -20 -10t-12 -21q-3 -8 -7 -14.5t-10 -6.5h-114l-5 7v133q0 3 2.5 8.5t6.5 10.5t8.5 9t7.5 4h94q2 0 8.5 -3.5t8.5 -5.5h-1l46 -48h40v152h-179q-8 0 -19 -4t-19 -10h-1zM135 777l10 -7q11 -11 29 -27.5t39 -26.5q3 -3 13 -3q14 0 27 8.5
t13 26.5q0 12 -4 20v-1q-17 37 -41 60t-46 28q-6 2 -13 2h-15q-16 0 -24.5 -14.5t-11.5 -26.5z" />
    <glyph glyph-name="FL00E9h" unicode="&#xe9;" horiz-adv-x="396" 
d="M151 675l-63 -63q-3 -4 -8.5 -11t-10.5 -12v1q-14 -15 -27.5 -33t-13.5 -41v-412q0 -15 8.5 -33t21.5 -33.5t29 -26.5t31 -11h138q22 0 45 14t42 35.5t30.5 47t11.5 48.5q0 17 -6.5 20.5t-21.5 3.5q-20 0 -28 -15t-14 -34q-5 -16 -11 -29t-20 -13h-94q-11 0 -18.5 9
t-13 21.5t-8 25.5t-2.5 21v5q0 4 -0.5 9.5t-0.5 13.5v61q0 14 0.5 31t0.5 40l19 17q-1 0 8.5 -5t19.5 -5h7q4 0 7.5 0.5t6.5 0.5q11 0 28.5 -1t28.5 -6q2 -1 5.5 -6.5t6.5 -11.5q6 -10 12.5 -18.5t18.5 -8.5h2q7 0 9.5 1.5t7.5 10.5q0 8 0.5 30t2.5 45q1 24 2 45t1 29v3
q0 12 -4 25.5t-21 13.5q-13 0 -20 -10t-12 -21q-3 -8 -7 -14.5t-10 -6.5h-114l-5 7v134q0 3 2.5 8t6.5 10t8.5 9t7.5 4h94q2 0 8.5 -3.5t8.5 -5.5h-1l46 -48h40v152h-179q-8 0 -19 -4t-19 -10h-1zM305 815q-3 12 -9.5 28t-22.5 16h-15q-5 0 -8 -0.5t-6 -1.5
q-21 -5 -45.5 -28t-40.5 -60v1q-5 -8 -5 -20q0 -18 13.5 -26.5t27.5 -8.5q10 0 13 3q13 7 26 16t24 18t18.5 17t10.5 13z" />
    <glyph glyph-name="FL00EAh" unicode="&#xea;" horiz-adv-x="396" 
d="M151 675l-63 -63q-3 -4 -8.5 -11t-10.5 -12v1q-14 -15 -27.5 -33t-13.5 -41v-412q0 -15 8.5 -33t21.5 -33.5t29 -26.5t31 -11h138q22 0 45 14t42 35.5t30.5 47t11.5 48.5q0 17 -6.5 20.5t-21.5 3.5q-20 0 -28 -15t-14 -34q-5 -16 -11 -29t-20 -13h-94q-11 0 -18.5 9
t-13 21.5t-8 25.5t-2.5 21v5q0 4 -0.5 9.5t-0.5 13.5v61q0 14 0.5 31t0.5 40l19 17q-1 0 8.5 -5t19.5 -5h7q4 0 7.5 0.5t6.5 0.5q11 0 28.5 -1t28.5 -6q2 -1 5.5 -6.5t6.5 -11.5q6 -10 12.5 -18.5t18.5 -8.5h2q7 0 9.5 1.5t7.5 10.5q0 8 0.5 30t2.5 45q1 24 2 45t1 29v3
q0 12 -4 25.5t-21 13.5q-13 0 -20 -10t-12 -21q-3 -8 -7 -14.5t-10 -6.5h-114l-5 7v134q0 3 2.5 8t6.5 10t8.5 9t7.5 4h94q2 0 8.5 -3.5t8.5 -5.5h-1l46 -48h40v152h-179q-8 0 -19 -4t-19 -10h-1zM78 765q0 -32 11 -40t41 -8q12 0 22 9.5t20 22.5q8 10 16 18.5t15 8.5h1
q2 0 8 -5t14 -13q12 -11 26.5 -23t28.5 -18q3 -2 11 -2q12 0 26 8t14 27q0 9 -4 20v-1q-17 37 -41 60t-46 28q-6 2 -13 2h-15q-13 0 -24.5 -0.5t-19.5 -1.5q-12 -4 -24 -13t-23 -21t-21 -25t-18 -25z" />
    <glyph glyph-name="FL00EBh" unicode="&#xeb;" horiz-adv-x="396" 
d="M48 785q0 33 22 54t54 21q31 0 52.5 -21t21.5 -54q0 -30 -21.5 -51t-52.5 -21q-32 0 -54 21t-22 51zM218 784q0 33 22 54t53 21q32 0 54 -21t22 -54q0 -30 -22 -51t-54 -21q-31 0 -53 21t-22 51zM148 672q10 8 22 12.5t20 4.5h179v-152h-40l-46 48h1q-2 2 -8.5 5.5
t-8.5 3.5h-94q-3 0 -7.5 -4t-8.5 -9t-6.5 -10t-2.5 -8v-134l5 -7h114q6 0 10 6.5t7 14.5q5 11 12 21t20 10q17 0 21 -13.5t4 -25.5v-3q0 -8 -1 -29t-2 -45q-2 -23 -2.5 -45t-0.5 -30q-5 -9 -7.5 -10.5t-9.5 -1.5h-2q-12 0 -18.5 8.5t-12.5 18.5q-3 6 -6.5 11.5t-5.5 6.5
q-11 5 -28.5 6t-28.5 1q-3 0 -6.5 -0.5t-7.5 -0.5h-7q-10 0 -19.5 5t-8.5 5l-19 -17q0 -23 -0.5 -40t-0.5 -31v-61q0 -8 0.5 -13.5t0.5 -9.5v-5q0 -8 2.5 -21t8 -25.5t13 -21.5t18.5 -9h94q14 0 20 13t11 29q6 19 14 34t28 15q15 0 21.5 -3.5t6.5 -20.5q0 -23 -11.5 -48.5
t-30.5 -47t-42 -35.5t-45 -14h-138q-15 0 -31 11t-29 26.5t-21.5 33.5t-8.5 33v412q0 23 13.5 41t27.5 33v-1q5 5 10.5 12t8.5 11z" />
    <glyph glyph-name="FL00ECh" unicode="&#xec;" horiz-adv-x="227" 
d="M53 51q4 -6 6 -18q4 -11 9 -22t18 -11h130q0 22 -8 33t-16 20q-7 7 -12.5 15t-5.5 19v516l1 1q11 11 18.5 23t7.5 31q0 11 -5 21t-18 10h-123q-19 0 -24.5 -11.5t-5.5 -26.5q0 -2 0.5 -3.5t0.5 -3.5v-3q0 -1 0.5 -2t0.5 -2q5 -7 13 -18t13 -17v-551zM50 778l9 -7
q11 -11 28.5 -27.5t37.5 -26.5q3 -3 13 -3q13 0 26 8.5t13 26.5q0 12 -5 20v-1q-15 37 -38.5 60t-44.5 28q-3 1 -5.5 1.5t-7.5 0.5h-15q-15 0 -23 -14.5t-11 -26.5z" />
    <glyph glyph-name="FL00EDh" unicode="&#xed;" horiz-adv-x="227" 
d="M53 51q4 -6 6 -18q4 -11 9 -22t18 -11h130q0 22 -8 33t-16 20q-7 7 -12.5 15t-5.5 19v516l1 1q11 11 18.5 23t7.5 31q0 11 -5 21t-18 10h-123q-19 0 -24.5 -11t-5.5 -27q0 -2 0.5 -3.5t0.5 -3.5v-3q0 -1 0.5 -2t0.5 -2q5 -7 13 -18t13 -17v-551zM199 816q-3 12 -9 28
t-22 16h-14q-7 0 -13 -2q-21 -5 -44.5 -28t-38.5 -60v1q-5 -8 -5 -20q0 -18 12.5 -26.5t26.5 -8.5q10 0 13 3q13 7 25.5 16t23 18t17.5 17t10 13z" />
    <glyph glyph-name="FL00EEh" unicode="&#xee;" horiz-adv-x="231" 
d="M54 51q4 -6 6 -18q4 -11 9 -22t19 -11h132q0 22 -8 33t-16 20q-8 7 -13.5 15t-5.5 19v516l1 1q11 11 18.5 23t7.5 31q0 11 -4.5 21t-18.5 10h-125q-20 0 -25 -11.5t-5 -26.5q0 -2 0.5 -3.5t0.5 -3.5v-3q0 -1 0.5 -2t0.5 -2q4 -7 12.5 -18t13.5 -17v-551zM-17 763
q0 -32 11.5 -40t40.5 -8q11 0 20.5 9t19.5 21q8 9 16 17t16 8q3 0 23 -17q12 -10 27 -21t26 -17q3 -2 11 -2q12 0 25.5 8t13.5 27q0 9 -4 20v-1q-16 37 -40 60t-45 28q-3 1 -5.5 1.5t-7.5 0.5h-15q-12 0 -23.5 -0.5t-19.5 -1.5q-12 -4 -23.5 -13t-22.5 -21t-20.5 -25
t-18.5 -25z" />
    <glyph glyph-name="FL00EFh" unicode="&#xef;" horiz-adv-x="234" 
d="M-44 791q0 33 22 54t54 21q31 0 52.5 -21t21.5 -54q0 -30 -21.5 -51t-52.5 -21q-32 0 -54 21t-22 51zM126 790q0 33 21.5 54t52.5 21q32 0 53.5 -21t21.5 -54q0 -30 -21.5 -51t-53.5 -21q-31 0 -52.5 21t-21.5 51zM55 602q-5 6 -13.5 17t-13.5 18q0 1 -0.5 2t-0.5 2v3
q0 2 -0.5 3.5t-0.5 3.5q0 16 5.5 27t24.5 11h127q14 0 19 -10t5 -21q0 -19 -8 -30.5t-19 -23.5l-1 -1v-516q0 -11 6 -19t13 -15q9 -9 17 -20t8 -33h-134q-14 0 -19 11t-9 22q-2 5 -3 10t-3 8v551z" />
    <glyph glyph-name="FL00F0h" unicode="&#xf0;" horiz-adv-x="424" 
d="M289 307l-4 -2l-6 -3q-6 0 -7.5 0.5t-3.5 2.5l-37 37h-68q-6 0 -12.5 -10t-6.5 -15v-179q0 -8 3 -18.5t9 -20t13.5 -16t16.5 -6.5h67q7 0 14 5.5t11.5 13.5t7.5 17t3 17v177zM410 544v-452q0 -13 -8.5 -29t-21.5 -30t-27.5 -23.5t-27.5 -9.5h-155q-18 0 -42.5 15.5
t-46.5 38.5t-37 48.5t-15 46.5v228q0 9 6 19t14.5 17.5t18.5 12.5t18 5h145q4 0 11 -3.5t13.5 -8.5t12.5 -11t8 -10q1 -2 4.5 -10.5t8.5 -19.5v203q0 3 -7 11.5t-12 8.5h-100l-2 -1t-4 -3l-52 -52h-38v151h173q4 0 11 -2t15 -5.5t15 -7t10 -6.5z" />
    <glyph glyph-name="FL00F1h" unicode="&#xf1;" horiz-adv-x="487" 
d="M426 619q0 10 -8 22t-19.5 22.5t-24 17.5t-22.5 7h-107q-15 0 -30 -13.5t-24 -24.5l-2 4h1q-4 12 -10 23t-18 11h-136q0 -20 7.5 -32t17.5 -22h-1q8 -8 14.5 -15t6.5 -18v-517q-12 -11 -20 -23t-8 -32q0 -11 5 -20t19 -9h123q20 0 25.5 11.5t5.5 25.5q0 2 -0.5 4.5
t-0.5 4.5v6q-1 1 -4 5.5t-5 6.5l-10 12t-9 9v488q0 10 8.5 16.5t20.5 10.5t24 5t19 1q14 0 30 -5.5t16 -22.5v-393l-91 -186h171q14 0 25.5 10t21 25.5t17 33t13.5 32.5q2 7 6.5 17t6.5 15q-6 2 -17 2.5t-14 0.5q-19 0 -28.5 -6.5t-17.5 -14.5t-17 -14.5t-27 -6.5h-8l75 82
v444zM405 811q0 32 -9.5 40t-35.5 8q-11 0 -24 -13.5t-24 -28.5q-5 -5 -8.5 -10t-5.5 -8q-11 20 -23.5 31t-24.5 19q-5 5 -13 8t-16 3h-14q-8 0 -16 -0.5t-16 -3.5h1q-11 -3 -22.5 -13.5t-22.5 -24t-20.5 -27.5t-16.5 -26l-4 -8v-6q0 -26 14.5 -30.5t37.5 -4.5h7l59 58
q11 -21 23.5 -31.5t26.5 -18.5l33 -7q12 0 23.5 0.5t16.5 1.5q10 3 19 11.5t17.5 19.5t16 23.5t14.5 24.5q1 2 1.5 2.5t1.5 2.5z" />
    <glyph glyph-name="FL00F2h" unicode="&#xf2;" horiz-adv-x="431" 
d="M178 583q-13 0 -36.5 -7t-47 -18.5t-41 -26.5t-17.5 -31v-402q0 -17 10.5 -33t25.5 -29.5t32.5 -23t31.5 -12.5h43l9 -1q37 0 66 7t53 21t45 36.5t41 53.5v-1q8 13 15.5 32t7.5 35v368q0 24 -11.5 48.5t-30.5 44.5t-42 32.5t-46 12.5h-154q-15 0 -30.5 -11.5t-29.5 -28.5
t-25 -36t-17 -33l-1 -12v-5q0 -9 3 -14.5t14 -5.5q14 0 27 8t24 16h-1l16.5 11t10.5 6q20 8 40 9.5t44 1.5h9l36 -1q10 -3 21 -13t11 -18v-403q0 -38 -14 -58t-53 -20q-11 0 -23 2.5t-21.5 8.5t-15.5 15.5t-6 23.5v374q0 7 4.5 13.5t9.5 13.5q8 9 14.5 19.5t6.5 22.5z
M152 780l10 -7q11 -11 29 -27.5t39 -26.5q3 -3 13 -3q14 0 27 8.5t13 26.5q0 6 -0.5 10.5t-3.5 9.5v-1q-16 37 -40.5 60t-46.5 28q-3 1 -5.5 1.5t-7.5 0.5h-16q-16 0 -24 -14.5t-11 -26.5z" />
    <glyph glyph-name="FL00F3h" unicode="&#xf3;" horiz-adv-x="431" 
d="M178 583q-13 0 -36.5 -7t-47 -18.5t-41 -26.5t-17.5 -31v-402q0 -17 10 -33t25 -29.5t32.5 -23t31.5 -12.5l11 -1h43q36 0 65 7t53 21t45 36.5t41 53.5v-1q8 13 15.5 32t7.5 35v368q0 24 -11.5 48.5t-30.5 44.5t-42 32.5t-46 12.5h-154q-15 0 -30.5 -12t-29.5 -29
t-25 -35.5t-17 -32.5l-1 -12v-5q0 -9 3 -14.5t14 -5.5q14 0 27 8t24 16h-1l16.5 11t10.5 6q20 8 40 9.5t44 1.5l36 -1h9q10 -3 21 -13t11 -18v-403q0 -38 -14 -58t-53 -20q-11 0 -23 2.5t-21.5 8.5t-15.5 15.5t-6 23.5v374q0 7 4.5 13.5t9.5 13.5q8 9 14.5 19.5t6.5 22.5z
M302 814q-3 12 -9.5 28t-22.5 16h-15q-5 0 -8 -0.5t-6 -1.5q-22 -5 -46 -28t-40 -60v1q-5 -8 -5 -20q0 -18 13 -26.5t27 -8.5q11 0 14 3q13 7 26 16t24 18t18.5 17t10.5 13z" />
    <glyph glyph-name="FL00F4h" unicode="&#xf4;" horiz-adv-x="431" 
d="M178 583q-13 0 -36.5 -7t-47 -18.5t-41 -26.5t-17.5 -31v-402q0 -17 10.5 -33t25.5 -29.5t32.5 -23t31.5 -12.5h11q5 0 9 -0.5t8 -0.5h25q36 0 65 7t53 21t45 36.5t41 53.5v-1q9 13 16 32t7 35v368q0 24 -11.5 48.5t-30.5 44.5t-42 32.5t-46 12.5h-154q-15 0 -30.5 -11.5
t-29.5 -28.5t-25 -36t-17 -33q0 -2 -0.5 -3.5t-0.5 -3.5v-11q0 -8 3 -13.5t14 -5.5q14 0 27 8t24 16h-1l16.5 11t10.5 6q20 8 40 9.5t44 1.5h9q3 0 6.5 -0.5t7.5 -0.5h22q10 -3 21 -13t11 -18v-403q0 -38 -14 -58t-53 -20q-11 0 -23 2.5t-21.5 8.5t-15.5 15.5t-6 23.5v374
q0 7 4.5 13.5t9.5 13.5q8 9 14.5 19.5t6.5 22.5zM89 765q0 -32 11 -40t41 -8q11 0 21 9t21 21q8 9 16 17t15 8h1q3 0 23 -17q13 -10 28 -20.5t26 -17.5q4 -2 12 -2q12 0 26 8t14 27q0 10 -5 20v-1q-16 37 -40 60t-46 28q-3 1 -6 1.5t-8 0.5h-15q-12 0 -24 -0.5t-20 -1.5
q-12 -4 -24 -13t-23 -21t-21 -25t-19 -25z" />
    <glyph glyph-name="FL00F5h" unicode="&#xf5;" horiz-adv-x="431" 
d="M178 583q-13 0 -36.5 -7t-47 -18.5t-41 -26.5t-17.5 -31v-402q0 -17 10.5 -33t25.5 -29.5t32.5 -23t31.5 -12.5h43l9 -1q37 0 66 7t53 21t45 36.5t41 53.5v-1q8 13 15.5 32t7.5 35v368q0 24 -11.5 48.5t-30.5 44.5t-42 32.5t-46 12.5h-154q-15 0 -30.5 -11.5t-29.5 -28.5
t-25 -36t-17 -33l-1 -17q0 -9 3 -14.5t14 -5.5q14 0 27 8t24 16h-1l16.5 11t10.5 6q20 8 40 9.5t44 1.5h46q10 -5 20.5 -14.5t10.5 -17.5v-403q0 -38 -14 -58t-53 -20q-11 0 -23 2.5t-21.5 8.5t-15.5 15.5t-6 23.5v374q0 7 4.5 13.5t9.5 13.5q8 9 14.5 19.5t6.5 22.5z
M376 811q0 32 -9.5 40t-34.5 8q-12 0 -25 -13.5t-24 -28.5q-4 -5 -7.5 -10t-6.5 -8q-11 20 -23.5 31t-23.5 19q-5 5 -13 8t-16 3h-14q-8 0 -16 -0.5t-16 -3.5h1q-11 -3 -22 -13.5t-22 -24t-21 -27.5t-17 -26l-3 -8v-6q0 -26 14 -30.5t37 -4.5h7l59 58q11 -21 23.5 -31.5
t26.5 -18.5l32 -7q13 0 24 0.5t17 1.5q9 3 18 11.5t17.5 19.5t16 23.5t14.5 24.5q1 2 1.5 2.5t1.5 2.5z" />
    <glyph glyph-name="FL00F6h" unicode="&#xf6;" horiz-adv-x="431" 
d="M59 790q0 33 21.5 54t54.5 21q31 0 53 -21t22 -54q0 -30 -22 -51t-53 -21q-33 0 -54.5 21t-21.5 51zM230 789q0 33 21.5 54t53.5 21t54 -21t22 -54q0 -30 -22 -51t-54 -21t-53.5 21t-21.5 51zM186 575q0 -12 -6.5 -22.5t-14.5 -19.5q-5 -7 -9.5 -13.5t-4.5 -13.5v-374
q0 -14 6 -23.5t15.5 -15.5t21.5 -8.5t23 -2.5q39 0 53 20t14 58v403q0 8 -11 18t-21 13h-22q-4 0 -7.5 0.5t-6.5 0.5h-9q-24 0 -44 -1.5t-40 -9.5q-3 -1 -10.5 -6t-16.5 -10h1q-11 -8 -24 -16.5t-27 -8.5q-11 0 -14 5.5t-3 13.5v11q0 2 0.5 3.5t0.5 3.5q6 14 17 33t25 36
t29.5 28.5t30.5 11.5h154q23 0 46 -12.5t42 -32.5t30.5 -44.5t11.5 -48.5v-368q0 -16 -7 -35t-16 -32v1q-20 -31 -41 -53.5t-45 -36.5t-53 -21t-65 -7h-25q-4 0 -8 0.5t-9 0.5h-11q-14 3 -31.5 12.5t-32.5 23t-25.5 29.5t-10.5 33v402q0 16 17.5 31t41 26.5t47 18.5t36.5 7z
" />
    <glyph glyph-name="FL00F7h" unicode="&#xf7;" horiz-adv-x="435" 
d="M76 275l2 2zM151 491q0 30 22 51.5t53 21.5q32 0 54 -21.5t22 -51.5q0 -32 -22 -52t-54 -20q-31 0 -53 20t-22 52zM150 232q0 32 22 52.5t54 20.5q31 0 53 -20.5t22 -52.5q0 -30 -22 -50.5t-53 -20.5q-32 0 -54 20.5t-22 50.5zM393 411q18 0 24.5 -9t6.5 -24v-11
q0 1 -0.5 -3t-1.5 -7v1q-2 -12 -5.5 -26t-9 -26.5t-13 -21t-18.5 -8.5q-5 2 -6 2t-3 2q-6 6 -16.5 12.5t-24 11.5t-27.5 8.5t-26 5.5l-95 -1q-12 0 -27 -3.5t-29 -9.5t-26 -13t-18 -14q-2 0 -6 -1q-15 0 -19 8.5t-7 17.5v1q-2 4 -4 12q-3 11 -8 26t-7 27q-1 5 -1 10
q0 15 6.5 24t24.5 9h336z" />
    <glyph glyph-name="FL00F8h" unicode="&#xf8;" horiz-adv-x="431" 
d="M178 580q-13 0 -36.5 -7t-47 -18.5t-41 -26.5t-17.5 -31v-399q0 -17 10.5 -33t25.5 -29.5t32.5 -23t31.5 -12.5h57q36 0 64 6.5t52 21t44 36.5t40 52v-1q8 13 15.5 32t7.5 35v366q0 24 -11.5 48.5t-30.5 44.5t-42 32.5t-46 12.5h-154q-15 0 -30.5 -11.5t-29.5 -28.5
t-25 -35.5t-17 -32.5l-1 -12v-6q0 -9 3 -14.5t14 -5.5q14 0 27 8.5t24 16.5h-1q9 6 16.5 10.5t10.5 5.5q20 8 40 9.5t44 1.5h46q13 -7 25 -20l-127 -247v178q0 8 4.5 14.5t9.5 13.5q8 8 14.5 18.5t6.5 23.5zM217 82q-14 0 -29.5 3.5t-25.5 14.5l122 235v-176
q0 -38 -14 -57.5t-53 -19.5z" />
    <glyph glyph-name="FL00F9h" unicode="&#xf9;" horiz-adv-x="487" 
d="M76 70q0 -10 7.5 -22.5t19 -23t24.5 -17.5t24 -7h105q14 0 29.5 13.5t23.5 23.5q1 -1 1 -2t1 -2q4 -11 8.5 -22t20.5 -11h136q0 21 -8 32t-18 21q-7 7 -13 15t-6 19v516l3 3q11 11 18.5 22t7.5 30q0 11 -4.5 21t-20.5 10h-129q-20 0 -25.5 -11.5t-5.5 -26.5
q0 -2 0.5 -3.5t0.5 -3.5v-5q2 -8 15 -18.5t21 -15.5v-487q0 -11 -9 -18t-21 -11t-24.5 -5.5t-18.5 -1.5q-7 0 -15.5 1t-15.5 4t-11.5 8.5t-4.5 14.5v394l91 185h-171q-14 0 -25 -10t-20.5 -25t-16.5 -32t-13 -32q-1 -3 -5 -11l-7 -14t-3 -7q5 -2 16.5 -4t14.5 -2
q18 0 28.5 6.5t18.5 14.5q7 8 16.5 15t26.5 7h8l-75 -82v-443zM198 779l10 -7q11 -11 29 -27.5t39 -26.5q3 -3 14 -3q14 0 27 8.5t13 26.5q0 12 -4 20v-1q-17 37 -41 60t-46 28q-3 1 -6 1.5t-8 0.5h-15q-17 0 -25 -14.5t-11 -26.5z" />
    <glyph glyph-name="FL00FAh" unicode="&#xfa;" horiz-adv-x="487" 
d="M76 70q0 -10 7.5 -22.5t19 -23t24.5 -17.5t24 -7h105q14 0 29.5 13.5t23.5 23.5q1 -1 1 -2t1 -2q4 -11 8.5 -22t20.5 -11h136q0 21 -8 32t-18 21q-7 7 -13 15t-6 19v516l3 3q11 11 18.5 22t7.5 30q0 11 -4.5 21t-20.5 10h-129q-20 0 -25.5 -11.5t-5.5 -26.5
q0 -2 0.5 -3.5t0.5 -3.5v-5q2 -8 15 -18.5t21 -15.5v-487q0 -11 -9 -18t-21 -11t-24.5 -5.5t-18.5 -1.5q-7 0 -15.5 1t-15.5 4t-11.5 8.5t-4.5 14.5v394l91 185h-171q-14 0 -25 -10t-20.5 -25t-16.5 -32t-13 -32q-1 -3 -5 -11l-7 -14t-3 -7q5 -2 16.5 -4t14.5 -2
q18 0 28.5 6.5t18.5 14.5q7 8 16.5 15t26.5 7h8l-75 -82v-443zM344 815q-3 12 -9.5 28t-22.5 16h-15q-5 0 -8 -0.5t-6 -1.5q-22 -5 -46.5 -28t-40.5 -60v1q-5 -8 -5 -20q0 -18 13.5 -26.5t27.5 -8.5q11 0 13 3q13 7 26.5 16t24.5 18t19 17t11 13z" />
    <glyph glyph-name="FL00FBh" unicode="&#xfb;" horiz-adv-x="487" 
d="M76 70q0 -10 7.5 -22.5t19 -23t24.5 -17.5t24 -7h105q14 0 29.5 13.5t23.5 23.5q1 -1 1 -2t1 -2q4 -11 8.5 -22t20.5 -11h136q0 21 -8 32t-18 21q-7 7 -13 15t-6 19v516l3 3q11 11 18.5 22t7.5 30q0 11 -4.5 21t-20.5 10h-129q-20 0 -25.5 -11.5t-5.5 -26.5
q0 -2 0.5 -3.5t0.5 -3.5v-5q2 -8 15 -18.5t21 -15.5v-487q0 -11 -9 -18t-21 -11t-24.5 -5.5t-18.5 -1.5q-7 0 -15.5 1t-15.5 4t-11.5 8.5t-4.5 14.5v394l91 185h-171q-14 0 -25 -10t-20.5 -25t-16.5 -32t-13 -32q-1 -3 -5 -11l-7 -14t-3 -7q5 -2 16.5 -4t14.5 -2
q18 0 28.5 6.5t18.5 14.5q7 8 16.5 15t26.5 7h8l-75 -82v-443zM125 765q0 -32 11 -40t42 -8q11 0 21.5 9.5t19.5 22.5q8 10 16.5 18.5t15.5 8.5h1q2 0 8 -5t14 -13q13 -11 27 -23t28 -18q4 -2 12 -2q12 0 26.5 8t14.5 27q0 10 -5 20v-1q-16 37 -40.5 60t-46.5 28
q-3 1 -6 1.5t-8 0.5h-15q-13 0 -25 -0.5t-20 -1.5q-12 -4 -23.5 -13t-22.5 -21t-21 -25t-19 -25z" />
    <glyph glyph-name="FL00FCh" unicode="&#xfc;" horiz-adv-x="487" 
d="M95 790q0 33 22 54t54 21t53.5 -21t21.5 -54q0 -30 -21.5 -51t-53.5 -21t-54 21t-22 51zM267 789q0 33 21.5 54t53.5 21t54 -21t22 -54q0 -30 -22 -51t-54 -21t-53.5 21t-21.5 51zM76 514l75 81h-8q-17 0 -26.5 -7t-16.5 -15q-8 -8 -18.5 -14.5t-28.5 -6.5q-3 0 -14.5 2
t-16.5 4q0 1 3 7l7 14t5 11q6 15 13 32t16.5 32t20.5 25t25 10h171l-91 -185v-394q0 -9 4.5 -14.5t11.5 -8.5t15.5 -4t15.5 -1q6 0 18.5 1.5t24.5 5.5t21 11t9 18v487q-8 5 -21 15.5t-15 18.5v5q0 2 -0.5 3.5t-0.5 3.5q0 16 5.5 27t25.5 11h129q16 0 20.5 -10t4.5 -21
q0 -19 -7.5 -30t-18.5 -22l-3 -3v-516q0 -11 6 -19t13 -15q10 -10 18 -21t8 -32h-136q-16 0 -20.5 11t-8.5 22q-1 1 -1 2t-1 2q-8 -10 -23.5 -23.5t-29.5 -13.5h-105q-11 0 -24 7t-24.5 17.5t-19 23t-7.5 22.5v444z" />
    <glyph glyph-name="FL00FDh" unicode="&#xfd;" horiz-adv-x="470" 
d="M75 304q8 -30 23 -44q-9 -6 -16.5 -18t-13.5 -25.5t-9.5 -27t-3.5 -24.5v-7q0 -5 -0.5 -12t-0.5 -14q0 -13 0.5 -22.5t4.5 -13.5q-1 1 -0.5 -1t2.5 -4v1q4 -8 13.5 -23.5t30 -30.5t55 -26.5t89.5 -11.5h106q10 0 22.5 7t24 17.5t19.5 23t8 22.5v531q0 1 1 2
q12 11 20.5 23.5t8.5 31.5q0 11 -4.5 21t-20.5 10h-128q-20 0 -25.5 -11.5t-5.5 -26.5q0 -2 0.5 -3.5t0.5 -3.5v-5q2 -3 6.5 -9.5t8.5 -11.5h-1q3 -3 6.5 -7.5t7.5 -7.5v-252q0 -10 -8 -16.5t-19 -10t-22.5 -4.5t-17.5 -1q-14 0 -30 5t-16 23l1 157l91 185h-171
q-14 0 -25 -10t-20.5 -25t-16.5 -32t-13 -32q-1 -3 -5 -11l-7 -14t-3 -7q5 -2 16.5 -4t14.5 -2q18 0 28.5 6.5t18.5 14.5q7 8 16.5 15t26.5 7h8l-75 -82zM256 237q14 0 27.5 12.5t23.5 23.5l2.5 -5t4.5 -8v-150q0 -9 -6.5 -11.5t-15.5 -2.5h-12q-4 0 -7 0.5t-6 0.5
q-11 0 -32 5t-41.5 14.5t-35.5 24t-15 33.5q0 6 1 10q4 15 4 31q0 13 -4 22h6h106zM336 815q-3 12 -9.5 28t-22.5 16h-15q-5 0 -8 -0.5t-6 -1.5q-22 -5 -46.5 -28t-40.5 -60v1q-5 -8 -5 -20q0 -18 13.5 -26.5t27.5 -8.5q11 0 13 3q13 7 26.5 16t24.5 18t18.5 17t10.5 13z
" />
    <glyph glyph-name="FL00FEh" unicode="&#xfe;" horiz-adv-x="469" 
d="M195 127l-6 123l103 93q17 15 32 32t15 40q0 9 -5 20.5t-16 11.5h-134q-2 0 -3 -1v-357l51 -89h-142q-14 0 -19 11t-9 22q-2 5 -3.5 10t-3.5 8v549q-4 4 -7.5 9.5t-8.5 11.5q-2 2 -5 5.5t-5 5.5l-2 4v5q0 2 -0.5 3.5t-0.5 3.5q0 15 5.5 26.5t25.5 11.5h128q14 0 19 -10
t5 -21q0 -19 -7.5 -30.5t-19.5 -23.5l-2 -2v-58h155q22 0 43.5 -9.5t38.5 -25t27 -36.5t10 -44q0 -44 -22.5 -73t-51.5 -55h1q-2 -2 -4.5 -4l-2.5 -2l2 1q-2 -2 -3.5 -2.5t-2.5 -1.5z" />
    <glyph glyph-name="FL00FFh" unicode="&#xff;" horiz-adv-x="470" 
d="M95 790q0 33 21.5 54t54.5 21q31 0 53 -21t22 -54q0 -30 -22 -51t-53 -21q-33 0 -54.5 21t-21.5 51zM266 789q0 33 22 54t54 21t54 -21t22 -54q0 -30 -22 -51t-54 -21t-54 21t-22 51zM150 237h-6q4 -9 4 -22q0 -16 -4 -31q-1 -4 -1 -10q0 -19 15 -33.5t35.5 -24
t41.5 -14.5t32 -5q3 0 6 -0.5t7 -0.5h12q9 0 15.5 2.5t6.5 11.5v150q-3 5 -4.5 8l-2.5 5q-10 -11 -23.5 -23.5t-27.5 -12.5h-106zM76 514l75 81h-8q-17 0 -26.5 -7t-16.5 -15q-8 -8 -18.5 -14.5t-28.5 -6.5q-3 0 -14.5 2t-16.5 4q0 1 3 7l7 14t5 11q6 15 13 32t16.5 32
t20.5 25t25 10h171l-91 -185l-1 -157q0 -18 16 -23t30 -5q6 0 17.5 1t22.5 4.5t19 10t8 16.5v252q-4 3 -7.5 7.5t-6.5 8.5h1q-4 5 -8.5 11t-6.5 9v5q0 2 -0.5 3.5t-0.5 3.5q0 16 5.5 27t25.5 11h128q16 0 20.5 -10t4.5 -21q0 -19 -8.5 -31t-20.5 -24q-1 -1 -1 -2v-531
q0 -10 -8 -22.5t-19.5 -23t-24 -17.5t-22.5 -7h-106q-55 0 -89.5 11.5t-55 26.5t-30 30.5t-13.5 23.5v-1q-2 2 -2.5 4t0.5 1q-4 4 -4.5 13.5t-0.5 22.5q0 7 0.5 14t0.5 12v7q0 11 3.5 24.5t9.5 27t13.5 25.5t16.5 18q-15 14 -23 44z" />
  </font>
</defs>
</svg>
